Торрент файл
скачать торрент магнет ссылка Добавлен: 15 янв 2012, 20:09
Размер: 2.07 ГБ
Сидеров: 20
Личеров: 5
Автор

СообщениеДобавлено: 15 янв 2012, 20:09 

Не в сети
Супермодератор
Аватара пользователя
Дата регистрации:
11 апр 2010, 18:10
Спасибо: 5802 / 7
Сообщения: 56779
[b]Пик Данте / Dante's Peak[/b]


Перевод: Профессиональный (двухголосый закадровый)
Субтитры: отсутствуют
Формат: HDRip-AVC, MKV, H.264, AC3

Страна:США

Режиссер: Роджер Дональдсон
Жанр: боевик, триллер, приключения
Продолжительность: 01:48:28
Год выпуска: 1997

В ролях: Пирс Броснан, Линда Хэмилтон, Чарльз Хэллахан, Джейми Рене Смит, Джереми Фоули, Элизабет Хоффман, Грант Хеслов, Кирк Тратнер, Арабелла Филд, Ци Ма.

Описание: Ученый-вулканолог Гарри Далтон, потерявший жену во время извержения вулкана, отправляется на Пик Данте, в маленький городок, расположенный на северо-западном побережье, для того, чтобы заняться там рутинной работой — исследованием сейсмической ситуации.

Ученый немедленно обнаруживает тревожные признаки надвигающейся катастрофы, грозящей обернуться концом света. Правительство не обращает внимания на его грозные предупреждения, и лишь мэр городка Пик Данте Рэчел Уэндо, с которой у него завязался роман, осознает весь ужас положения и спешит к нему на помощь.




Видео: 1024x432 (2.35:1), 23.976 fps, AVC MPEG-4 High@L4.1 ~2170 kbps avg, 0.205 bit/pixel
Аудио #1: русский48 kHz, AC3 Dolby Digital, 2/0 (L, R) ch, ~192 kbps avg [Профессиональный (двухголосый закадровый)]
Аудио #2: русский48 kHz, AC3 Dolby Digital, 3/2 (L,C,R,l,r) + LFE ch, ~384 kbps avg [Авторский (Живов)]

Рип от: __


General
Unique ID: 203881236049110245241400962005230388543 (0x99621906D62370CD8C112B20FC73853F)
Complete name: D:\Мои рипы\Dante's.Peak.1997.P.HDRip.mkv
Format: Matroska
Format version: Version 2
File size: 2.07 GiB
Duration: 1h 48mn
Overall bit rate: 2 731 Kbps
Movie name: Dante's.Peak.S.I.D
Encoded date: UTC 2012-01-05 14:33:50
Writing application: mkvmerge v2.9.8 ('C'est le bon') built on Aug 13 2009 12:49:06
Writing library: libebml v0.7.7 + libmatroska v0.8.1

Video
ID: 1
Format: AVC
Format/Info: Advanced Video Codec
Format profile: High@L4.1
Format settings, CABAC: Yes
Format settings, ReFrames: 8 frames
Codec ID: V_MPEG4/ISO/AVC
Duration: 1h 48mn
Bit rate: 2 170 Kbps
Width: 1 024 pixels
Height: 432 pixels
Display aspect ratio: 2.35:1
Frame rate: 23.976 fps
Color space: YUV
Chroma subsampling: 4:2:0
Bit depth: 8 bits
Scan type: Progressive
Bits/(Pixel*Frame): 0.205
Stream size: 1.59 GiB (77%)
Title: RG Films Tfile
Writing library: x264 core 119 r2106 07efeb4
Encoding settings: cabac=1 / ref=8 / deblock=1:-1:-1 / analyse=0x3:0x111 / me=umh / subme=0 / psy=1 / psy_rd=1.00:0.10 / mixed_ref=1 / me_range=16 / chroma_me=1 / trellis=2 / 8x8dct=1 / cqm=0 / deadzone=21,11 / fast_pskip=0 / chroma_qp_offset=-1 / threads=6 / sliced_threads=0 / nr=0 / decimate=1 / interlaced=0 / bluray_compat=0 / constrained_intra=0 / bframes=3 / b_pyramid=2 / b_adapt=2 / b_bias=0 / direct=1 / weightb=1 / open_gop=0 / weightp=2 / keyint=250 / keyint_min=23 / scenecut=40 / intra_refresh=0 / rc_lookahead=40 / rc=abr / mbtree=1 / bitrate=2170 / ratetol=1.0 / qcomp=0.60 / qpmin=0 / qpmax=69 / qpstep=4 / ip_ratio=1.40 / aq=1:1.00
Language: English
Default: Yes
Forced: No

Audio #1
ID: 2
Format: AC-3
Format/Info: Audio Coding 3
Mode extension: CM (complete main)
Codec ID: A_AC3
Duration: 1h 48mn
Bit rate mode: Constant
Bit rate: 192 Kbps
Channel(s): 2 channels
Channel positions: Front: L R
Sampling rate: 48.0 KHz
Bit depth: 16 bits
Compression mode: Lossy
Stream size: 149 MiB (7%)
Title: двухголосый
Language: Russian
Default: Yes
Forced: No

Audio #2
ID: 3
Format: AC-3
Format/Info: Audio Coding 3
Mode extension: CM (complete main)
Codec ID: A_AC3
Duration: 1h 48mn
Bit rate mode: Constant
Bit rate: 384 Kbps
Channel(s): 6 channels
Channel positions: Front: L C R, Side: L R, LFE
Sampling rate: 48.0 KHz
Bit depth: 16 bits
Compression mode: Lossy
Stream size: 298 MiB (14%)
Title: Живов
Language: Russian
Default: No
Forced: No








Поделиться:




реклама партнёра


Вернуться к началу
 Профиль Отправить личное сообщение  
 
   Похожие торренты   Автор   Торрент   Размер 
В этой теме нет новых непрочитанных сообщений. Пик Данте / Dante's Peak [боевик, триллер, приключения, 1997] HDRip, Dvo

salma3

11 | 1

1.46 ГБ

В этой теме нет новых непрочитанных сообщений. Пик Данте / Dante's Peak [боевик, триллер, приключения, 1997] BDRip 720p, Mvo+2Dvo+Avo+Sub

salma3

1 | 2

7.95 ГБ

В этой теме нет новых непрочитанных сообщений. Пик Данте / Dante's Peak [боевик, триллер, приключения, 1997] BDRip 1080p, Mvo+2Dvo+Avo+Sub

salma3

15 | 5

12.34 ГБ

В этой теме нет новых непрочитанных сообщений. Человек ноября / The November Man (Роджер Дональдсон) [2014, боевик, триллер, криминал, CAMRip] Dub

Nickolas3435

55 | 2

1.38 ГБ

В этой теме нет новых непрочитанных сообщений. Человек ноября / The November Man (Роджер Дональдсон) [2014, Боевик, триллер, криминал, CAMRip *PROPER*] Dub

Nickolas3435

52 | 3

1.46 ГБ

В этой теме нет новых непрочитанных сообщений. Недооформлен Самолет президента / Air Force One (Вольфганг Петерсен) [1997, боевик, триллер, драма, приключения, HDRip-AVC] DUB+MVO+AVO / Фильмы HDRip Данный торрент является блокированным, причина: недооформленный торрент

Kochesov

11 | 1

3.57 ГБ

В этой теме нет новых непрочитанных сообщений. Багровый пик / Crimson Peak (Гильермо дель Торо) [ужасы, фэнтези, триллер, драма, мелодрама, детектив, 2015] HDRip, Dub [iTunes]

Dracon

391 | 8

1.37 ГБ


Начать новую тему Ответить на тему  [ 1 сообщение ] 




Для Мосгорсуда, Роскомнадзора и рекламодателей:: mosgorsud-torrent[собачка]yandex.ru