Торрент файл
скачать торрент магнет ссылка Добавлен: 15 янв 2012, 00:58
Размер: 1.46 ГБ
Сидеров: 587
Личеров: 17
Автор

СообщениеДобавлено: 15 янв 2012, 00:58 

Не в сети
Супермодератор
Аватара пользователя
Дата регистрации:
11 апр 2010, 18:10
Спасибо: 5960 / 7
Сообщения: 56765
Король говорит! / The King's Speech

«Когда Бог не смог спасти короля, королева обратилась к тому, кто может»

Перевод: Профессиональный (полное дублирование) [лицензия]
Субтитры:отсутствуют
Формат: HDRip-AVC, MKV, H.264, AC3

Страна: США, Великобритания, Австралия
Режиссер: Том Хупер
Жанр: драма, история

Продолжительность: 01:59:56
Год выпуска: 2010

В ролях: Колин Фёрт, Хелена Бонем Картер, Джеффри Раш, Дерек Джекоби, Роберт Порталь, Ричард Диксон, Пол Трасселл, Эдриан Скарборо, Эндрю Хавилл, Чарльз Армстронг

Описание: Сюжет ленты расскажет о герцоге, который готовится вступить в должность британского короля Георга VI, отца нынешней королевы Елизаветы II. После того, как его брат отрекается от престола, герой неохотно соглашается на трон. Измученный страшным нервным заиканием и сомнениями в своих способностях руководить страной, Георг обращается за помощью к неортодоксальному логопеду по имени Лайонел Лог. После серии неожиданных техник и в результате дружбы двух непохожих людей, герой наконец обретает свой королевский голос и смело ведет Англию на войну.







Видео: 720x400 (16:9), 23.976 fps, AVC MPEG-4 (x264) High@L5.1 ~1 571 kbps avg, 0.228 bit/pixe
Аудио: 48 kHz, AC3, 2 ch, ~192 kbps avg

Рип от: TswetkOFF

Релиз-Группа:


General
Unique ID: 198677933212411695427226242784153029304 (0x9577FA63DCB43A48B9225AF3819BCAB
Complete name: D:\Films\the_king's_speech_[tfile.ru].mkv
Format: Matroska
File size: 1.46 GiB
Duration: 1h 58mn
Overall bit rate: 1 765 Kbps
Encoded date: UTC 2011-05-02 13:36:15
Writing application: mkvmerge v4.6.0 ('Still Crazy After All These Years') сборка от Apr1 2011 21:01:49
Writing library: libebml v1.2.0 + libmatroska v1.1.0

Video
ID: 1
Format: AVC
Format/Info: Advanced Video Codec
Format profile: High@L5.1
Format settings, CABAC: Yes
Format settings, ReFrames: 16 frames
Codec ID: V_MPEG4/ISO/AVC
Duration: 1h 58mn
Bit rate: 1 571 Kbps
Width: 720 pixels
Height: 400 pixels
Display aspect ratio: 16:9
Frame rate: 23.976 fps
Color space: YUV
Chroma subsampling: 4:2:0
Bit depth: 8 bits
Scan type: Progressive
Bits/(Pixel*Frame): 0.228
Stream size: 1.27 GiB (87%)
Writing library: x264 core 115 r1937 aa21558
Encoding settings: cabac=1 / ref=16 / deblock=1:-1:-1 / analyse=0x3:0x133 / me=umh / subme=10 / psy=1 / psy_rd=1.00:0.10 / mixed_ref=1 / me_range=24 / chroma_me=1 / trellis=2 / 8x8dct=1 / cqm=0 / deadzone=21,11 / fast_pskip=1 / chroma_qp_offset=-3 / threads=3 / sliced_threads=0 / nr=0 / decimate=1 / interlaced=0 / bluray_compat=0 / constrained_intra=0 / bframes=8 / b_pyramid=2 / b_adapt=2 / b_bias=0 / direct=3 / weightb=1 / open_gop=0 / weightp=2 / keyint=250 / keyint_min=23 / scenecut=40 / intra_refresh=0 / rc_lookahead=60 / rc=2pass / mbtree=1 / bitrate=1571 / ratetol=1.0 / qcomp=0.60 / qpmin=0 / qpmax=69 / qpstep=4 / cplxblur=20.0 / qblur=0.5 / ip_ratio=1.40 / aq=1:1.00

Audio
ID: 2
Format: AC-3
Format/Info: Audio Coding 3
Mode extension: CM (complete main)
Codec ID: A_AC3
Duration: 1h 58mn
Bit rate mode: Constant
Bit rate: 192 Kbps
Channel(s): 2 channels
Channel positions: Front: L R
Sampling rate: 48.0 KHz
Bit depth: 16 bits
Compression mode: Lossy
Stream size: 163 MiB (11%)



















Поделиться:




реклама партнёра


Вернуться к началу
 Профиль Отправить личное сообщение  
 
   Похожие торренты   Автор   Торрент   Размер 
В этой теме нет новых непрочитанных сообщений. Девушка-король / The Girl King Драма, мелодрама, биография, история[, 2015] BDRip 1080p, Avo

salma3

27 | 5

10.77 ГБ

В этой теме нет новых непрочитанных сообщений. Девушка-король / The Girl King [Драма, мелодрама, биография, история, 2015] BDRip 720p, Avo

salma3

49 | 32

5.6 ГБ

В этой теме нет новых непрочитанных сообщений. Четвертый король / Il quarto re / The fourth king [Италия, Германия, история, приключения, фэнтези, 1997] DVDRip, Mvo

salma3

2 | 0

1.36 ГБ

В этой теме нет новых непрочитанных сообщений. Король Гаваны / El rey de La Habana / The King of Havana (Агусти Вильяронга / Agusti Villaronga) [2015г., Испания, драма, криминал, эротика, экранизация, HDRip-AVC] DVO

Alfredovich

52 | 6

1.59 ГБ

В этой теме нет новых непрочитанных сообщений. Слепой король / The Blind King [ужасы, 2016] HDRip, Mvo

salma3

151 | 58

1.37 ГБ

В этой теме нет новых непрочитанных сообщений. Король Артур и рыцари круглого стола / King Arthur and the Knights of the Round Table [боевик, 2017] HDRip, Mvo

salma3

598 | 329

1.37 ГБ

В этой теме нет новых непрочитанных сообщений. Король / Deo king [драма, криминал, 2017] WEBRip, Mvo

salma3

311 | 121

1.42 ГБ


Начать новую тему Ответить на тему  [ 1 сообщение ] 




Для Мосгорсуда, Роскомнадзора и рекламодателей:: mosgorsud-torrent[собачка]yandex.ru