Торрент файл
скачать торрент магнет ссылка Добавлен: 15 янв 2012, 00:56
Размер: 748.11 МБ
Сидеров: 156
Личеров: 21
Автор

СообщениеДобавлено: 15 янв 2012, 00:56 

Не в сети
Супермодератор
Аватара пользователя
Дата регистрации:
11 апр 2010, 18:10
Спасибо: 5802 / 7
Сообщения: 56779
Кочевник / Nomad / The warrior


Перевод: Профессиональный (полное дублирование), cубтитры: отсутствуют
Формат: HDRip, AVI, XviD, MP3
Страна: США, Россия, Казахстан
Режиссер: Сергей Бодров, Иван Пассер, Талгат Теменов
Жанр: драма, военный, история
Продолжительность: 01:46:43
Год выпуска: 2005
В ролях: Марк Дакаскос, Джейсон Скотт Ли, Джей Эрнандез, Дилназ Ахмадиева, Куно Бекер, Азиз Бейшиналиев, Арчи Као

Описание: История о казахском народе, о становлении государственного самосознания казахов еще в ХVIII веке.

В основу фильма «Кочевник» легли реальные исторические события, происходившие на казахской земле в 18 веке — освободительная война казахов против джунгарских завоевателей. Героями фильма являются реальные исторические личности: хан Абулхаир, Аблай-хан, мудрый Толе би, предводитель джунгар Голдан Церен.

Центральная фигура фильма — герой Мансур, ставший Аблай ханом, проходит все испытания подлинного народного полководца, но при этом не теряет притягательных личных черт, благодаря удачно выписанной лирической линии его любви к девушке — воину Гаухар.








Видео: 688x288 (2.39:1), 23.976 fps, XviD build 50 ~801 kbps avg, 0.17 bit/pixel
Аудио:48 kHz, MPEG Layer 3, 2 ch, ~128.00 kbps avg


Общее
Полное имя: E:\Nomad.The.Warrior_2005_HDRip.avi
Формат: AVI
Формат/Информация: Audio Video Interleave
Размер файла: 748 Мбайт
Продолжительность: 1 ч. 51 м.
Общий поток: 939 Кбит/сек
Программа кодирования: VirtualDubMod 1.5.10.2 (build 2540/release)
Библиотека кодирования: VirtualDubMod build 2540/release

Видео
Идентификатор: 0
Формат: MPEG-4 Visual
Профиль формата: Advanced Simple@L5
Параметр BVOP формата: 1
Параметр QPel формата: Нет
Параметр GMC формата: Без точки перехода
Параметр матрицы формата: Default (MPEG)
Идентификатор кодека: XVID
Идентификатор кодека/Подсказка: XviD
Продолжительность: 1 ч. 51 м.
Битрейт: 802 Кбит/сек
Ширина: 688 пикс.
Высота: 288 пикс.
Соотношение сторон: 2,35:1
Частота кадров: 23,976 кадр/сек
Цветовое пространство: YUV
Подвыборка цветности: 4:2:0
Битовая глубина: 8 бит
Тип развёртки: Прогрессивная
Метод сжатия: С потерями
Бит/(Пиксели*Кадры): 0.169
Размер потока: 639 Мбайт (85%)
Библиотека кодирования: XviD 1.2.1 (UTC 2008-12-04)

Аудио
Идентификатор: 1
Формат: MPEG Audio
Версия формата: Version 1
Профиль формата: Layer 3
Идентификатор кодека: 55
Идентификатор кодека/Подсказка: MP3
Продолжительность: 1 ч. 51 м.
Вид битрейта: Постоянный
Битрейт: 128 Кбит/сек
Канал(ы): 2 канала(ов)
Частота: 48,0 КГц
Метод сжатия: С потерями
Размер потока: 102 Мбайт (14%)
Выравнивание: Соединение по промежуткам
Продолжительность промежутка: 42мс. (1,00 видеокадр)
Время предзагрузки промежутка: 504 ms
Библиотека кодирования: LAME3.98r
Настройки программы: -m s -V 4 -q 2 -lowpass 17 -b 128





Поделиться:




реклама партнёра


Вернуться к началу
 Профиль Отправить личное сообщение  
 
   Похожие торренты   Автор   Торрент   Размер 
В этой теме нет новых непрочитанных сообщений. Кочевник  / Nomad The Warrior [драма, военный, история, 2005] HDRip, Dub

salma3

1 | 2

1.47 ГБ

В этой теме нет новых непрочитанных сообщений. Седьмой сын / Seventh Son (Сергей Бодров) [фэнтези, приключения, 2014] HDRip-AVC, Dub+Sub [Лицензия]

Dracon

667 | 50

2 ГБ

В этой теме нет новых непрочитанных сообщений. Седьмой сын / Seventh Son (Сергей Бодров) [фэнтези, приключения, 2014] HDRip, Dub [Лицензия]

Dracon

394 | 25

2.06 ГБ

В этой теме нет новых непрочитанных сообщений. Седьмой сын / Seventh Son (Сергей Бодров) [фэнтези, приключения, 2014] HDRip, Dub [iTunes]

Dracon

403 | 18

1.46 ГБ

В этой теме нет новых непрочитанных сообщений. Война волков / Wolf Warrior (Джеки Ву) [боевик, военный, 2015] HDRip, avo

Dracon

2154 | 102

1.46 ГБ

В этой теме нет новых непрочитанных сообщений. Император / Emperor [драма, военный, история, 2012] HDRip, Mvo

Dracon

737 | 12

1.36 ГБ

В этой теме нет новых непрочитанных сообщений. Колетт / Colette [драма, мелодрама, военный, история, 2013] HDRip, avo

Dracon

221 | 13

2.19 ГБ


Начать новую тему Ответить на тему  [ 1 сообщение ] 




Для Мосгорсуда, Роскомнадзора и рекламодателей:: mosgorsud-torrent[собачка]yandex.ru