Торрент файл
скачать торрент магнет ссылка Добавлен: 15 янв 2012, 00:55
Размер: 1.47 ГБ
Сидеров: 186
Личеров: 14
Автор

СообщениеДобавлено: 15 янв 2012, 00:55 

Не в сети
Супермодератор
Аватара пользователя
Дата регистрации:
11 апр 2010, 18:10
Спасибо: 5963 / 7
Сообщения: 56762
Лопе де Вега: Распутник и соблазнитель / Lope

Перевод: Профессиональный (многоголосый, закадровый), cубтитры: отсутствуют
Формат: HDRip, AVI, XviD, AC3
Страна: Бразилия, Испания
Режиссер: Андруча Уэддингтон
Жанр: драма, биография
Продолжительность: 01:42:30
Год выпуска: 2010

В ролях: Леонор Уотлинг,Соня Брага,Луис Тосар,Пилар Лопес де Айяла,Антонио де ла Торре,Альберто Эмманн,Марина Салас,Мигель Анхель Муньос,Селтон Меллу,Хуан Диего

Описание: XVI век, Испания. Одаренный молодой драматург Лопе де Вега возвращается в Мадрид с войны, полный амбиций, стремления жить и писать… Но за душой у него ни гроша, поэтому он вынужден работать переписчиком при более известных авторах. Лопе влюбляется в Елену, восхитительную дочь своего босса. Ее отец, руководящий самой успешной театральной труппой в городе, никогда не одобрил бы такой связи, поэтому Лопе и Елена вынуждены видеться тайком. Но у Елены есть и другая тайна: она уже замужем за другим. Лопе просит возлюбленную рассказать всем об их любви и расторгнуть брак, но получает отказ. Уязвленный, он придает огласке лицемерие Елены и ее отца, а в ответ получает обвинение в клевете. Последний способ уйти от расправы — пуститься в бега.

Единственный, кто готов помочь Лопе в его несчастьях, — его подруга детства Изабелла. Но и у нее есть тайна — она много лет влюблена в Лопе… За время странствий Лопе де Вега, наконец, осознает, кому же в действительности принадлежит его сердце, но судьба преподносит молодому человеку новый сюрприз…


[/field]

Видео: 720x304 (2.37:1), 25 fps, XviD build 50 ~2135 kbps avg, 0.39 bit/pixel
Аудио: 48 kHz, AC3 Dolby Digital, 3/2 (L,C,R,l,r) + LFE ch, ~448 kbps

Доп. информация: Премьера (РФ) 2 июня 2011

Качество: HDRip [исходник неизвестен]

General
Complete name: E:\Загрузки\Lope.de.Vega.2010.BDRip.avi
Format: AVI
Format/Info: Audio Video Interleave
File size: 1.47 GiB
Duration: 1h 42mn
Overall bit rate: 2 047 Kbps
Writing application: VirtualDubMod 1.5.10.3 | (build 2550/release)
Writing library: VirtualDubMod build 2550/release

Video
ID: 0
Format: MPEG-4 Visual
Format profile: Advanced Simple@L5
Format settings, BVOP: 2
Format settings, QPel: No
Format settings, GMC: No warppoints
Format settings, Matrix: Custom
Codec ID: XVID
Codec ID/Hint: XviD
Duration: 1h 42mn
Bit rate: 1 589 Kbps
Width: 720 pixels
Height: 304 pixels
Display aspect ratio: 2.35:1
Frame rate: 25.000 fps
Color space: YUV
Chroma subsampling: 4:2:0
Bit depth: 8 bits
Scan type: Progressive
Compression mode: Lossy
Bits/(Pixel*Frame): 0.290
Stream size: 1.14 GiB (78%)
Writing library: XviD 63

Audio
ID: 1
Format: AC-3
Format/Info: Audio Coding 3
Mode extension: CM (complete main)
Codec ID: 2000
Duration: 1h 42mn
Bit rate mode: Constant
Bit rate: 448 Kbps
Channel(s): 6 channels
Channel positions: Front: L C R, Side: L R, LFE
Sampling rate: 48.0 KHz
Bit depth: 16 bits
Compression mode: Lossy
Stream size: 328 MiB (22%)
Alignment: Split accross interleaves
Interleave, duration: 40 ms (1.00 video frame)
Interleave, preload duration: 500 ms








Поделиться:




реклама партнёра


Вернуться к началу
 Профиль Отправить личное сообщение  
 
   Похожие торренты   Автор   Торрент   Размер 
В этой теме нет новых непрочитанных сообщений. Летние тучи / Nubes de verano (Фелипе Вега / Felipe Vega) [2004г., Испания, драма, DVDRip] Sub

Alfredovich

15 | 5

1.38 ГБ

В этой теме нет новых непрочитанных сообщений. 127 часов / 127 Hours [триллер, биография, драма, приключения, 2010] HDRip-AVC, Dub

salma3

30 | 5

744.12 МБ

В этой теме нет новых непрочитанных сообщений. 33 / The 33 [драма, биография, история, 2015] HDRip, Dub [SDI Media]

salma3

925 | 72

1.46 ГБ

В этой теме нет новых непрочитанных сообщений. Джеки / Jackie [драма, биография, 2016] HDRip, Mvo

salma3

456 | 207

1.46 ГБ

В этой теме нет новых непрочитанных сообщений. Кристин / Christine [драма, биография, 2016] HDRip, Mvo

salma3

156 | 68

1.37 ГБ

В этой теме нет новых непрочитанных сообщений. Нобл / Noble [Драма, биография, 2014] HDRip, dvo

Dracon

262 | 14

1.45 ГБ

В этой теме нет новых непрочитанных сообщений. Правда / Truth [Драма, биография, 2015] HDRip, dvo

Dracon

163 | 9

1.45 ГБ


Начать новую тему Ответить на тему  [ 1 сообщение ] 




Для Мосгорсуда, Роскомнадзора и рекламодателей:: mosgorsud-torrent[собачка]yandex.ru