Торрент файл
скачать торрент магнет ссылка Добавлен: 15 янв 2012, 00:55
Размер: 2.11 ГБ
Сидеров: 451
Личеров: 38
Автор

СообщениеДобавлено: 15 янв 2012, 00:55 

Не в сети
Супермодератор
Аватара пользователя
Дата регистрации:
11 апр 2010, 18:10
Спасибо: 5799 / 7
Сообщения: 56779
Троя / Troy


Перевод: Профессиональный (полное дублирование) + Многоголосый на режиссёрские вставки
Субтитры: отсутствуют
Формат: HDRip-AVC, MKV, H.264, AC3
Страна: США, Великобритания, Мальта
Режиссер: Вольфганг Петерсен
Жанр: боевик, драма, мелодрама, история
Продолжительность: 03:16:02
Год выпуска: 2004

В ролях: Брэд Питт, Дайан Крюгер, Эрик Бана, Орландо Блум, Шон Бин, Брайн Кокс, Джулиан Гловер, Натан Джонс, Адони Маропис, Джейкоб Смит, Брендан Глисон, Гаррет Хедланд, Питер О'Тул, Роуз Бирн

Описание: В течение времён люди вели войны. Некоторые за власть, некоторые за славу, некоторые за честь и некоторые за любовь... В 1193 году до нашей эры, принц Трои Парис украл прекрасную Елену, жену короля Спарты Менелая, повергнув греков и троянцев в долгую кровопролитную войну. Греческая армада под предводительством Ахилла подошла к столице Трои и взяла город в кровавую осаду, длившуюся долгих десять лет...



Видео: 912 x 376 (2:40:1), 23.976 fps, AVC, х264, High@L4.1, ~ 1152 Kbps, 0.140 bit/pixel
Аудио: 48 kHz, AC3 Dolby Digital, 3/2 (L,C,R,l,r) + LFE ch, ~384 kbps


Рип: jeenart

General
Unique ID: 182288521343047657620018023845109129330 (0x89237DFF5447D20B97A6A018DB076072)
Complete name: F:\Мои релизы\Все релизы 10\troy_[tfile.ru].mkv
Format: Matroska
File size: 2.11 GiB
Duration: 3h 16mn
Overall bit rate: 1 538 Kbps
Encoded date: UTC 2011-08-09 22:37:56
Writing application: mkvmerge v4.6.0 ('Still Crazy After All These Years') сборка от Apr1 2011 21:01:49
Writing library: libebml v1.2.0 + libmatroska v1.1.0

Video
ID: 1
Format: AVC
Format/Info: Advanced Video Codec
Format profile: High@L4.1
Format settings, CABAC: Yes
Format settings, ReFrames: 4 frames
Format settings, GOP: M=4, N=32
Codec ID: V_MPEG4/ISO/AVC
Duration: 3h 16mn
Bit rate: 1 152 Kbps
Width: 912 pixels
Height: 376 pixels
Display aspect ratio: 2.40:1
Frame rate: 23.976 fps
Color space: YUV
Chroma subsampling: 4:2:0
Bit depth: 8 bits
Scan type: Progressive
Bits/(Pixel*Frame): 0.140
Stream size: 1.54 GiB (73%)
Writing library: x264 core 115 r1937 aa21558
Encoding settings: cabac=1 / ref=3 / deblock=1:-1:-1 / analyse=0x3:0x113 / me=hex / subme=7 / psy=1 / psy_rd=1.00:0.10 / mixed_ref=1 / me_range=16 / chroma_me=1 / trellis=1 / 8x8dct=1 / cqm=0 / deadzone=21,11 / fast_pskip=1 / chroma_qp_offset=-3 / threads=6 / sliced_threads=0 / nr=0 / decimate=1 / interlaced=0 / bluray_compat=0 / constrained_intra=0 / bframes=3 / b_pyramid=2 / b_adapt=1 / b_bias=0 / direct=1 / weightb=1 / open_gop=0 / weightp=2 / keyint=250 / keyint_min=23 / scenecut=40 / intra_refresh=0 / rc_lookahead=40 / rc=2pass / mbtree=1 / bitrate=1152 / ratetol=1.0 / qcomp=0.60 / qpmin=0 / qpmax=69 / qpstep=4 / cplxblur=20.0 / qblur=0.5 / ip_ratio=1.40 / aq=1:1.00

Audio
ID: 2
Format: AC-3
Format/Info: Audio Coding 3
Mode extension: CM (complete main)
Codec ID: A_AC3
Duration: 3h 16mn
Bit rate mode: Constant
Bit rate: 384 Kbps
Channel(s): 6 channels
Channel positions: Front: L C R, Side: L R, LFE
Sampling rate: 48.0 KHz
Bit depth: 16 bits
Compression mode: Lossy
Stream size: 538 MiB (25%)
























Поделиться:




реклама партнёра


Вернуться к началу
 Профиль Отправить личное сообщение  
 
   Похожие торренты   Автор   Торрент   Размер 
В этой теме нет новых непрочитанных сообщений. Недооформлен Самолет президента / Air Force One (Вольфганг Петерсен) [1997, боевик, триллер, драма, приключения, HDRip-AVC] DUB+MVO+AVO / Фильмы HDRip Данный торрент является блокированным, причина: недооформленный торрент

Kochesov

11 | 1

3.57 ГБ

В этой теме нет новых непрочитанных сообщений. Ангелы с железными зубами / Iron Jawed Angels [Мелодрама, драма, история, 2004] HDTV 1080i, Mvo

salma3

11 | 9

7.11 ГБ

В этой теме нет новых непрочитанных сообщений. Новая полицейская история / New Police Story / Xin jing cha gu shi [боевик, триллер, драма, 2004] BDRip 720р, Dub+Sub

salma3

54 | 4

4.84 ГБ

В этой теме нет новых непрочитанных сообщений. Колетт / Colette [драма, мелодрама, военный, история, 2013] HDRip, avo

Dracon

221 | 13

2.19 ГБ

В этой теме нет новых непрочитанных сообщений. Баджирао и Мастани / Bajirao Mastani [драма, мелодрама, история, 2015] HDRip, Mvo

salma3

47 | 4

1.7 ГБ

В этой теме нет новых непрочитанных сообщений. Диана: История любви / Diana [драма, мелодрама, биография, 2013] HDRip, Dub [iTunes]

Dracon

34 | 4

2.05 ГБ

В этой теме нет новых непрочитанных сообщений. Мятеж на Баунти / Mutiny on the Bounty [драма, мелодрама, приключения, история, 1962] HDRip, Mvo

salma3

21 | 3

2.19 ГБ


Начать новую тему Ответить на тему  [ 1 сообщение ] 




Для Мосгорсуда, Роскомнадзора и рекламодателей:: mosgorsud-torrent[собачка]yandex.ru