Торрент файл
скачать торрент магнет ссылка Добавлен: 15 янв 2012, 00:54
Размер: 2.1 ГБ
Сидеров: 67
Личеров: 8
Автор

СообщениеДобавлено: 15 янв 2012, 00:54 

Не в сети
Супермодератор
Аватара пользователя
Дата регистрации:
11 апр 2010, 18:10
Спасибо: 5960 / 7
Сообщения: 56765
Храброе сердце / Braveheart



Перевод: Профессиональный (полное дублирование),субтитры: отсутствуют
Формат: HDRip-AVC, MKV, H.264, AC3
Страна: США
Жанр: боевик, драма, военный, биография, история
Продолжительность: 02:57:00
Режиссер: Мэл Гибсон/Mel Gibson
Год выпуска: 1995

В ролях: Мэл Гибсон, Софи Марсо, Патрик МакГуэн, Энгус МакФадьен, Катрин МакКормак, Брендан Глисон, Брайан Кокс, Джерард МакСорли, Мартин Мерфи, Томми Флэнаган

Описание:Действие фильма начинается в 1280 году в Шотландии. Это история легендарного национального героя Уильяма Уолласа, посвятившего себя борьбе с англичанами при короле Эдварде Длинноногом.

Он рано лишился отца, погибшего от рук англичан, и его забрал к себе дядя Оргайл, который дал ему хорошее образование в Европе. На родину Уильям возвращается уже взрослым человеком, мечтающем завести семью и жить мирной жизнью.

Но судьба распорядилась иначе. Его невесту убили англичане, и он начал свой крестовый поход за свободу.


________

Видео: 1280 x 544 (2:35:1), 23,976 кадр/сек, AVC (х264), High@L4.0, ~ 1310 Kbps,0.078 bit/pixel
Аудио: 48 kHz, AC3 Dolby Digital, 3/2 (L,C,R,l,r) + LFE ch, ~384 kbps


Автор РИПа:ddimmon22
Общее
Уникальный идентификатор: 253530089273345764517722486139021439038 (0xBEBC1E7B9955F0C8AE76ADCBDAF8303E)
Полное имя: K:\РИПЫ\braveheart_[tfile.ru].mkv
Формат: Matroska
Версия формата: Version 2
Размер файла: 2,10 Гбайт
Продолжительность: 2 ч. 57 м.
Общий поток: 1696 Кбит/сек
Дата кодирования: UTC 2011-09-12 02:45:33
Программа кодирования: mkvmerge v4.9.1 ('Ich will') сборка от Aug 10 2011 09:31:20
Библиотека кодирования: libebml v1.2.1 + libmatroska v1.2.0

Видео
Идентификатор: 1
Формат: AVC
Формат/Информация: Advanced Video Codec
Профиль формата: High@L4.0
Параметр CABAC формата: Да
Параметр ReFrames формата: 8 кадров
Идентификатор кодека: V_MPEG4/ISO/AVC
Продолжительность: 2 ч. 57 м.
Битрейт: 1310 Кбит/сек
Ширина: 1280 пикс.
Высота: 544 пикс.
Соотношение сторон: 2,35:1
Частота кадров: 23,976 кадр/сек
Цветовое пространство: YUV
Подвыборка цветности: 4:2:0
Битовая глубина: 8 бит
Тип развёртки: Прогрессивная
Бит/(Пиксели*Кадры): 0.078
Размер потока: 1,59 Гбайт (75%)
Библиотека кодирования: x264 core 116 r2074 2641b9e
Настройки программы: cabac=1 / ref=8 / deblock=1:-1:-1 / analyse=0x3:0x133 / me=umh / subme=7 / psy=1 / psy_rd=1.00:0.10 / mixed_ref=1 / me_range=16 / chroma_me=1 / trellis=2 / 8x8dct=1 / cqm=0 / deadzone=21,11 / fast_pskip=0 / chroma_qp_offset=-3 / threads=6 / sliced_threads=0 / nr=0 / decimate=1 / interlaced=0 / bluray_compat=0 / constrained_intra=0 / bframes=3 / b_pyramid=2 / b_adapt=2 / b_bias=0 / direct=3 / weightb=1 / open_gop=0 / weightp=2 / keyint=250 / keyint_min=23 / scenecut=40 / intra_refresh=0 / rc_lookahead=50 / rc=2pass / mbtree=1 / bitrate=1310 / ratetol=1.0 / qcomp=0.60 / qpmin=0 / qpmax=69 / qpstep=4 / cplxblur=20.0 / qblur=0.5 / ip_ratio=1.40 / aq=1:1.00

Аудио
Идентификатор: 2
Формат: AC-3
Формат/Информация: Audio Coding 3
Расширение режима: CM (complete main)
Идентификатор кодека: A_AC3
Продолжительность: 2 ч. 57 м.
Вид битрейта: Постоянный
Битрейт: 384 Кбит/сек
Каналы: 6 каналов
Расположение каналов: Front: L C R, Side: L R, LFE
Частота: 48,0 КГц
Битовая глубина: 16 бит
Метод сжатия: С потерями
Размер потока: 488 Мбайт (23%)










Поделиться:




реклама партнёра


Вернуться к началу
 Профиль Отправить личное сообщение  
 
   Похожие торренты   Автор   Торрент   Размер 
В этой теме нет новых непрочитанных сообщений. Храброе сердце / Braveheart (Мэл Гибсон) [1995, боевик, драма, военный, биография, BDRip, 1080p]

marya111

0 | 1

16.91 ГБ

В этой теме нет новых непрочитанных сообщений. Храброе сердце / Braveheart [боевик, драма, военный, биография, история, 1995] Blu-Ray, Dub+Sub [Лицензия]

salma3

61 | 67

37.24 ГБ

В этой теме нет новых непрочитанных сообщений. Храброе сердце / Braveheart [драма, военный, биография, история, 1995] BDRip 720p, Dub [iPad]

salma3

10 | 1

4.92 ГБ

В этой теме нет новых непрочитанных сообщений. Храброе сердце / Braveheart [Драма, военный, биография, история, 1995] BDRemux, 5Mvo+6Avo+Dvo+Sub

salma3

6 | 8

65.64 ГБ

В этой теме нет новых непрочитанных сообщений. В сердце моря / In the Heart of the Sea (Рон Ховард) [2015, боевик, триллер, драма, приключения, биография, история, HDRip] Dub

Nickolas3435

19133 | 907

1.46 ГБ

В этой теме нет новых непрочитанных сообщений. В сердце моря / In the Heart of the Sea (Рон Ховард) [2015, боевик, триллер, драма, приключения, биография, история, HDRip] Dub

Nickolas3435

2699 | 56

2.19 ГБ

В этой теме нет новых непрочитанных сообщений. В сердце моря / In the Heart of the Sea [боевик, триллер, драма, приключения, биография, история, 2015] HDRip, Dub [iTunes] [КПК]

salma3

329 | 27

577.92 МБ


Начать новую тему Ответить на тему  [ 1 сообщение ] 




Для Мосгорсуда, Роскомнадзора и рекламодателей:: mosgorsud-torrent[собачка]yandex.ru