Торрент файл
скачать торрент магнет ссылка Добавлен: 15 янв 2012, 00:53
Размер: 2.07 ГБ
Сидеров: 3
Личеров: 4
Автор

СообщениеДобавлено: 15 янв 2012, 00:53 

Не в сети
Супермодератор
Аватара пользователя
Дата регистрации:
11 апр 2010, 18:10
Спасибо: 5802 / 7
Сообщения: 56779
Поездка в Индию / A Passage to India


Перевод: Профессиональный (двухголосый), cубтитры: отсутствуют
Формат: DVDRip-AVC, MKV, H.264, AC3
Страна: США, Великобритания
Режиссер: Дэвид Лин
Жанр: драма, приключения, история
Продолжительность: 02:37:00
Год выпуска: 1984

В ролях: Джуди Дэвис, Виктор Банерджи, Пегги Эшкрофт, Джеймс Фокс, Алек Гиннесс, Найджел Хэверс, Ричард Уилсон, Антония Пембертон, Майкл Калвер, Арт Малик

Описание: Действие этого фильма происходит в двадцатые годы двадцатого века. Столкновение культур Востока и Запада показано на материале нетривиальной поездки молодой своенравной англичанки в Индию.



Видео: 1024 x 552 (1:85:1), 25.000 fps, AVC (х264) High@L4.1, ~ 1692 Kbps, 0.120 bit/pixel
Аудио: 48 kHz, AC3 Dolby Digital, 2/0 (L,R) ch, ~192 kbps


Рип: jeenart

General
Unique ID: 187940737713667637072870177386352393450 (0x8D6411C7B0FB81888E79C729E05CBCEA)
Complete name: F:\Мои релизы\Все релизы 10\poezdka_v_indiu_[tfile.ru].mkv
Format: Matroska
File size: 2.07 GiB
Duration: 2h 37mn
Overall bit rate: 1 885 Kbps
Encoded date: UTC 2011-09-13 12:22:51
Writing application: mkvmerge v4.6.0 ('Still Crazy After All These Years') сборка от Apr1 2011 21:01:49
Writing library: libebml v1.2.0 + libmatroska v1.1.0

Video
ID: 1
Format: AVC
Format/Info: Advanced Video Codec
Format profile: High@L4.1
Format settings, CABAC: Yes
Format settings, ReFrames: 4 frames
Codec ID: V_MPEG4/ISO/AVC
Duration: 2h 37mn
Bit rate: 1 692 Kbps
Width: 1 024 pixels
Height: 552 pixels
Display aspect ratio: 1.855
Frame rate: 25.000 fps
Color space: YUV
Chroma subsampling: 4:2:0
Bit depth: 8 bits
Scan type: Progressive
Bits/(Pixel*Frame): 0.120
Stream size: 1.82 GiB (88%)
Writing library: x264 core 115 r1937 aa21558
Encoding settings: cabac=1 / ref=3 / deblock=1:-1:-1 / analyse=0x3:0x113 / me=hex / subme=7 / psy=1 / psy_rd=1.00:0.10 / mixed_ref=1 / me_range=16 / chroma_me=1 / trellis=1 / 8x8dct=1 / cqm=0 / deadzone=21,11 / fast_pskip=1 / chroma_qp_offset=-3 / threads=6 / sliced_threads=0 / nr=0 / decimate=1 / interlaced=0 / bluray_compat=0 / constrained_intra=0 / bframes=3 / b_pyramid=2 / b_adapt=1 / b_bias=0 / direct=1 / weightb=1 / open_gop=0 / weightp=2 / keyint=250 / keyint_min=25 / scenecut=40 / intra_refresh=0 / rc_lookahead=40 / rc=2pass / mbtree=1 / bitrate=1692 / ratetol=1.0 / qcomp=0.60 / qpmin=0 / qpmax=69 / qpstep=4 / cplxblur=20.0 / qblur=0.5 / ip_ratio=1.40 / aq=1:1.00

Audio
ID: 2
Format: AC-3
Format/Info: Audio Coding 3
Mode extension: CM (complete main)
Codec ID: A_AC3
Duration: 2h 37mn
Bit rate mode: Constant
Bit rate: 192 Kbps
Channel(s): 2 channels
Channel positions: Front: L R
Sampling rate: 48.0 KHz
Bit depth: 16 bits
Compression mode: Lossy
Stream size: 216 MiB (10%)





























Поделиться:




реклама партнёра


Вернуться к началу
 Профиль Отправить личное сообщение  
 
   Похожие торренты   Автор   Торрент   Размер 
В этой теме нет новых непрочитанных сообщений. Баунти / The Bounty [Приключения, история, драма, 1984] HDTVRip, Mvo

salma3

102 | 8

1.45 ГБ

В этой теме нет новых непрочитанных сообщений. Баунти / The Bounty [Боевик, драма, приключения, история, 1984] BDRip 720p, Mvo+Sub

salma3

90 | 11

5.76 ГБ

В этой теме нет новых непрочитанных сообщений. Лемон Три Пасседж / Lemon Tree Passage (Дэвид Кэмпбелл) [Триллер, Ужасы, 2013] HDRip, dvo

Dracon

7 | 2

1.37 ГБ

В этой теме нет новых непрочитанных сообщений. Класс 1984 / Class of 1984 [триллер, драма, криминал, 1982] DVDRip, Avo

salma3

78 | 8

1.37 ГБ

В этой теме нет новых непрочитанных сообщений. Замечательная поездка / Timescape [фантастика, триллер, драма, 1992] DVDRip, Dvo

salma3

73 | 10

1.43 ГБ

В этой теме нет новых непрочитанных сообщений. Поездка к морю / Pojedeme k mori [драма, комедия, семейный, 2014] DVDRip, avo

Dracon

2 | 2

1.44 ГБ

В этой теме нет новых непрочитанных сообщений. Стрела / Arrow [04х01-18 из 23] (Дэвид Баррет, Дэвид Наттер) [2015, фантастика, боевик, драма, детектив, приключения, WEB-DLRip | NewStudio]

Nickolas3435

42 | 562

12.39 ГБ


Начать новую тему Ответить на тему  [ 1 сообщение ] 




Для Мосгорсуда, Роскомнадзора и рекламодателей:: mosgorsud-torrent[собачка]yandex.ru