Торрент файл
скачать торрент магнет ссылка Добавлен: 15 янв 2012, 00:53
Размер: 2.11 ГБ
Сидеров: 106
Личеров: 6
Автор

СообщениеДобавлено: 15 янв 2012, 00:53 

Не в сети
Супермодератор
Аватара пользователя
Дата регистрации:
11 апр 2010, 18:10
Спасибо: 5802 / 7
Сообщения: 56779
Александр / Alexander


Перевод: Профессиональный (одноголосый), cубтитры: отсутствуют
Формат: HDRip-AVC, MKV, H.264, AC3
Страна: США, Германия, Франция, Великобритания, Нидерланды, Италия
Режиссер: Оливер Стоун
Жанр: боевик, драма, мелодрама, приключения, военный, история
Продолжительность: 03:33:37
Год выпуска: 2004

В ролях: Колин Фаррелл, Анджелина Джоли, Вэл Килмер, Энтони Хопкинс, Джаред Лето, Розарио Доусон, Джонатан Риз Мейерс, Рори МакКанн,Гари Стретч, Йен Битти

Описание: Спустя 40 лет после гибели Александра пожилой Птолемей, один из ближайших соратников Македонского, ставший после его смерти наместником Египта, решает рассказать и записать историю побед великого полководца. В течение восьми лет войско Александра Великого двигалось на Восток, к берегам мирового Океана.
Покорив Западную и Центральную Азию, Македонский первым ступил на загадочную и таинственную землю древней Индии. Об этом он мечтал ещё в детстве, слушая мифы о Трое, подвигах Геракла и Аполлона…




Видео: 976 x 416 (2:35:1), 23.976 fps, AVC (х264) High@L4.1, ~ 1025 Kbps, 0.105 bit/pixel
Аудио: 48 kHz, AC3 Dolby Digital, 3/2 (L,C,R,l,r) + LFE ch, ~384 kbps


Рип: jeenart

General
Unique ID: 202391262823699699954402280212260723293 (0x984323ACCC80BC43944A61C55C801A5D)
Complete name: F:\Мои релизы\Все релизы 10\alexander_[tfile.ru].mkv
Format: Matroska
File size: 2.11 GiB
Duration: 3h 33mn
Overall bit rate: 1 411 Kbps
Encoded date: UTC 2011-09-18 03:48:20
Writing application: mkvmerge v4.6.0 ('Still Crazy After All These Years') сборка от Apr1 2011 21:01:49
Writing library: libebml v1.2.0 + libmatroska v1.1.0

Video
ID: 1
Format: AVC
Format/Info: Advanced Video Codec
Format profile: High@L4.1
Format settings, CABAC: Yes
Format settings, ReFrames: 4 frames
Format settings, GOP: M=4, N=32
Codec ID: V_MPEG4/ISO/AVC
Duration: 3h 33mn
Bit rate: 1 025 Kbps
Width: 976 pixels
Height: 416 pixels
Display aspect ratio: 2.35:1
Frame rate: 23.976 fps
Color space: YUV
Chroma subsampling: 4:2:0
Bit depth: 8 bits
Scan type: Progressive
Bits/(Pixel*Frame): 0.105
Stream size: 1.49 GiB (71%)
Writing library: x264 core 115 r1937 aa21558
Encoding settings: cabac=1 / ref=3 / deblock=1:-1:-1 / analyse=0x3:0x113 / me=hex / subme=7 / psy=1 / psy_rd=1.00:0.10 / mixed_ref=1 / me_range=16 / chroma_me=1 / trellis=1 / 8x8dct=1 / cqm=0 / deadzone=21,11 / fast_pskip=1 / chroma_qp_offset=-3 / threads=6 / sliced_threads=0 / nr=0 / decimate=1 / interlaced=0 / bluray_compat=0 / constrained_intra=0 / bframes=3 / b_pyramid=2 / b_adapt=1 / b_bias=0 / direct=1 / weightb=1 / open_gop=0 / weightp=2 / keyint=250 / keyint_min=23 / scenecut=40 / intra_refresh=0 / rc_lookahead=40 / rc=2pass / mbtree=1 / bitrate=1025 / ratetol=1.0 / qcomp=0.60 / qpmin=0 / qpmax=69 / qpstep=4 / cplxblur=20.0 / qblur=0.5 / ip_ratio=1.40 / aq=1:1.00

Audio
ID: 2
Format: AC-3
Format/Info: Audio Coding 3
Mode extension: CM (complete main)
Codec ID: A_AC3
Duration: 3h 33mn
Bit rate mode: Constant
Bit rate: 384 Kbps
Channel(s): 6 channels
Channel positions: Front: L C R, Side: L R, LFE
Sampling rate: 48.0 KHz
Bit depth: 16 bits
Compression mode: Lossy
Stream size: 587 MiB (27%)

























Поделиться:




реклама партнёра


Вернуться к началу
 Профиль Отправить личное сообщение  
 
   Похожие торренты   Автор   Торрент   Размер 
В этой теме нет новых непрочитанных сообщений. Нерассказанная история США / The Untold History of the United States [Episode 9 of 10] (Оливер Стоун) [Документальный, история, 2014] SATRip, Mvo

Dracon

1 | 3

836.51 МБ

В этой теме нет новых непрочитанных сообщений. Нерассказанная история США / The Untold History of the United States [Episode 10 of 10] (Оливер Стоун) [Документальный, история, 2014] SATRip, Mvo

Dracon

3 | 3

832.55 МБ

В этой теме нет новых непрочитанных сообщений. Нерассказанная история США / The Untold History of the United States [Episode 8 of 10] (Оливер Стоун) [Документальный, история, 2014] SATRip, Mvo

Dracon

5 | 3

830.64 МБ

В этой теме нет новых непрочитанных сообщений. Александр Великий / Alexander the Great [Мультфильм, 3D, приключения, история, 2006] DVDRip, Dub

salma3

34 | 6

1000.48 МБ

В этой теме нет новых непрочитанных сообщений. Бахубали: Начало / Baahubali: The Beginning [Боевик, приключения, военный, история, 2015] HDRip, Dvo

salma3

1878 | 70

1.46 ГБ

В этой теме нет новых непрочитанных сообщений. Колетт / Colette [драма, мелодрама, военный, история, 2013] HDRip, avo

Dracon

221 | 13

2.19 ГБ

В этой теме нет новых непрочитанных сообщений. Простая история (Виктор Татарский) [2016, Боевик, военный, драма, мелодрама, WEB-DLRip]

marya111

1881 | 65

1.37 ГБ


Начать новую тему Ответить на тему  [ 1 сообщение ] 




Для Мосгорсуда, Роскомнадзора и рекламодателей:: mosgorsud-torrent[собачка]yandex.ru