Торрент файл
скачать торрент магнет ссылка Добавлен: 15 янв 2012, 00:52
Размер: 2.1 ГБ
Сидеров: 5
Личеров: 6
Автор

СообщениеДобавлено: 15 янв 2012, 00:52 

Не в сети
Супермодератор
Аватара пользователя
Дата регистрации:
11 апр 2010, 18:10
Спасибо: 5799 / 7
Сообщения: 56779
Золотой век / Elizabeth: The Golden Age



Перевод: Профессиональный (полное дублирование),субтитры: отсутствуют
Формат: HDRip-AVC, MKV, H.264, AC3
Страна: Германия, Франция, Великобритания
Жанр: драма, мелодрама, биография, история
Продолжительность: 01:54:00
Режисер: Шекхар Капур / Shekhar Kapur
Год выпуска: 2007

В ролях: Кейт Бланшетт, Клайв Оуэн, Джеффри Раш, Эбби Корниш, Саманта Мортон, Жорди Молья, Рис Иванс, Айми Кинг, Лоуренс Фокс, Джон Шрэпнел.

Описание:1585 год. В мире господствует католическая Испания во главе с королем Филиппом. Ей в состоянии противостоять только Англия с королевой-протестанткой Елизаветой. Но в самой Англии нет единства.

Половина населения превозносит Марию Стюарт, и мечтает видеть ее на английском троне, считая Елизавету незаконнорожденной дочерью Генриха VIII. Испанский король, воспользовавшись сложной ситуацией при английском дворе, готовит заговор. В результате он направляет мощную армаду кораблей к берегам Англии…


________

Видео: 1152x624 (1:84:0),23,976 кадр/сек, AVC (х264),High@L4.0, ~2236Kbps, 0.130 bit/pixel
Аудио: 48 kHz, AC3 Dolby Digital, 3/2 (L,C,R,l,r) + LFE ch, ~384 kbps


Автор РИПа:ddimmon22
Общее
Уникальный идентификатор: 255151898823484948457378988911681953834 (0xBFF477DDFEFE6BC58D12807734A1602A)
Полное имя: K:\РИПЫ\elizabeth_the_golden_age_[tfile.ru].mkv
Формат: Matroska
Версия формата: Version 2
Размер файла: 2,10 Гбайт
Продолжительность: 1 ч. 54 м.
Общий поток: 2621 Кбит/сек
Дата кодирования: UTC 2011-09-22 16:45:54
Программа кодирования: mkvmerge v4.9.1 ('Ich will') сборка от Aug 10 2011 09:31:20
Библиотека кодирования: libebml v1.2.1 + libmatroska v1.2.0

Видео
Идентификатор: 1
Формат: AVC
Формат/Информация: Advanced Video Codec
Профиль формата: High@L4.0
Параметр CABAC формата: Да
Параметр ReFrames формата: 8 кадров
Идентификатор кодека: V_MPEG4/ISO/AVC
Продолжительность: 1 ч. 54 м.
Битрейт: 2236 Кбит/сек
Ширина: 1152 пикс.
Высота: 624 пикс.
Соотношение сторон: 16:9
Частота кадров: 23,976 кадр/сек
Цветовое пространство: YUV
Подвыборка цветности: 4:2:0
Битовая глубина: 8 бит
Тип развёртки: Прогрессивная
Бит/(Пиксели*Кадры): 0.130
Размер потока: 1,75 Гбайт (83%)
Библиотека кодирования: x264 core 116 r2074 2641b9e
Настройки программы: cabac=1 / ref=8 / deblock=1:-1:-1 / analyse=0x3:0x133 / me=umh / subme=7 / psy=1 / psy_rd=1.00:0.10 / mixed_ref=1 / me_range=16 / chroma_me=1 / trellis=2 / 8x8dct=1 / cqm=0 / deadzone=21,11 / fast_pskip=0 / chroma_qp_offset=-3 / threads=6 / sliced_threads=0 / nr=0 / decimate=1 / interlaced=0 / bluray_compat=0 / constrained_intra=0 / bframes=3 / b_pyramid=2 / b_adapt=2 / b_bias=0 / direct=3 / weightb=1 / open_gop=0 / weightp=2 / keyint=250 / keyint_min=23 / scenecut=40 / intra_refresh=0 / rc_lookahead=50 / rc=2pass / mbtree=1 / bitrate=2236 / ratetol=1.0 / qcomp=0.60 / qpmin=0 / qpmax=69 / qpstep=4 / cplxblur=20.0 / qblur=0.5 / ip_ratio=1.40 / aq=1:1.00

Аудио
Идентификатор: 2
Формат: AC-3
Формат/Информация: Audio Coding 3
Расширение режима: CM (complete main)
Идентификатор кодека: A_AC3
Продолжительность: 1 ч. 54 м.
Вид битрейта: Постоянный
Битрейт: 384 Кбит/сек
Каналы: 6 каналов
Расположение каналов: Front: L C R, Side: L R, LFE
Частота: 48,0 КГц
Битовая глубина: 16 бит
Метод сжатия: С потерями
Размер потока: 315 Мбайт (15%)










Поделиться:




реклама партнёра


Вернуться к началу
 Профиль Отправить личное сообщение  
 
   Похожие торренты   Автор   Торрент   Размер 
В этой теме нет новых непрочитанных сообщений. Диана: История любви / Diana [драма, мелодрама, биография, 2013] HDRip, Dub [iTunes]

Dracon

34 | 4

2.05 ГБ

В этой теме нет новых непрочитанных сообщений. Невидимая женщина / The Invisible Woman (Рэйф Файнс) [драма, мелодрама, биография, история, 2013] HDRip, Mvo

Dracon

6 | 2

2.04 ГБ

В этой теме нет новых непрочитанных сообщений. Золотой Глобус: Бавария / Golden Globe: Bayern [2010, документальный, BDRip AVC]

Nickolas3435

39 | 2

2.76 ГБ

В этой теме нет новых непрочитанных сообщений. Золотой Глобус: Бавария / Golden Globe: Bayern [2010, документальный, BDRip 720p]

Nickolas3435

34 | 2

4.31 ГБ

В этой теме нет новых непрочитанных сообщений. 33 / The 33 [драма, биография, история, 2015] HDRip, Dub [SDI Media]

salma3

925 | 72

1.46 ГБ

В этой теме нет новых непрочитанных сообщений. Луи Сир / Louis Cyr [драма, биография, история, 2013] HDRip, avo

Dracon

4 | 2

1.46 ГБ

В этой теме нет новых непрочитанных сообщений. Принцесса Ток-хе / Deokhyeongjoo [драма, биография, история, 2016] HDRip, Dvo

salma3

69 | 26

1.46 ГБ


Начать новую тему Ответить на тему  [ 1 сообщение ] 




Для Мосгорсуда, Роскомнадзора и рекламодателей:: mosgorsud-torrent[собачка]yandex.ru