Торрент файл
скачать торрент магнет ссылка Добавлен: 15 янв 2012, 00:52
Размер: 1.45 ГБ
Сидеров: 33
Личеров: 6
Автор

СообщениеДобавлено: 15 янв 2012, 00:52 

Не в сети
Супермодератор
Аватара пользователя
Дата регистрации:
11 апр 2010, 18:10
Спасибо: 5801 / 7
Сообщения: 56779
Тень воина / Kagemusha



Перевод: Профессиональный (многоголосый, закадровый),субтитры: отсутствуют
Формат: HDRip-AVC, MKV, H.264, AC3
Страна: США, Япония
Жанр: драма, военный, история
Продолжительность: 03:00:00
Режиссер: Акира Куросава / Akira Kurosawa
Год выпуска: 1980

В ролях: Тацуя Накадаи, Цутому Ямазаки, Киничи Хагивара, Джинпачи Незу, Хидейи Отаки, Даизуке Рю, Масаюки Юи, Каори Момои, Мицуко Байсё, Хидэо Мурота

Описание:Япония, 16 век. Мелкий воришка Кагемуся осуждён на казнь, но внезапно ему даруют жизнь. Дело в том, что он как две капли воды похож на местного правителя Такеду, властного и сильного человека, один вид которого воодушевлял солдат. Но Такеда недавно скончался…

________

Видео: 1280x 688 (1:86:0), 23,976 кадр/сек, AVC (х264),High@L4.0, ~960 Kbps,0.045 bit/pixel
Аудио: 48 kHz, AC3 Dolby Digital, 2/0 (L,R,) ch, ~192 kbps


Автор РИПа:ddimmon22
Общее
Уникальный идентификатор: 253871124842519325996021671543502974129 (0xBEFDCCD5A4D94C2EB7E0DAB3C56AACB1)
Полное имя: K:\РИПЫ\kagemusha_[tfile.ru].mkv
Формат: Matroska
Версия формата: Version 2
Размер файла: 1,45 Гбайт
Продолжительность: 3 ч. 0 м.
Общий поток: 1154 Кбит/сек
Дата кодирования: UTC 2011-09-19 21:22:30
Программа кодирования: mkvmerge v4.9.1 ('Ich will') сборка от Aug 10 2011 09:31:20
Библиотека кодирования: libebml v1.2.1 + libmatroska v1.2.0

Видео
Идентификатор: 1
Формат: AVC
Формат/Информация: Advanced Video Codec
Профиль формата: High@L4.0
Параметр CABAC формата: Да
Параметр ReFrames формата: 8 кадров
Идентификатор кодека: V_MPEG4/ISO/AVC
Продолжительность: 3 ч. 0 м.
Битрейт: 960 Кбит/сек
Ширина: 1280 пикс.
Высота: 688 пикс.
Соотношение сторон: 1,860
Частота кадров: 23,976 кадр/сек
Цветовое пространство: YUV
Подвыборка цветности: 4:2:0
Битовая глубина: 8 бит
Тип развёртки: Прогрессивная
Бит/(Пиксели*Кадры): 0.045
Размер потока: 1,18 Гбайт (81%)
Библиотека кодирования: x264 core 116 r2074 2641b9e
Настройки программы: cabac=1 / ref=8 / deblock=1:-1:-1 / analyse=0x3:0x133 / me=umh / subme=7 / psy=1 / psy_rd=1.00:0.10 / mixed_ref=1 / me_range=16 / chroma_me=1 / trellis=2 / 8x8dct=1 / cqm=0 / deadzone=21,11 / fast_pskip=0 / chroma_qp_offset=-3 / threads=6 / sliced_threads=0 / nr=0 / decimate=1 / interlaced=0 / bluray_compat=0 / constrained_intra=0 / bframes=3 / b_pyramid=2 / b_adapt=2 / b_bias=0 / direct=3 / weightb=1 / open_gop=0 / weightp=2 / keyint=250 / keyint_min=23 / scenecut=40 / intra_refresh=0 / rc_lookahead=50 / rc=2pass / mbtree=1 / bitrate=960 / ratetol=1.0 / qcomp=0.60 / qpmin=0 / qpmax=69 / qpstep=4 / cplxblur=20.0 / qblur=0.5 / ip_ratio=1.40 / aq=1:1.00

Аудио
Идентификатор: 2
Формат: AC-3
Формат/Информация: Audio Coding 3
Расширение режима: CM (complete main)
Идентификатор кодека: A_AC3
Продолжительность: 3 ч. 0 м.
Вид битрейта: Постоянный
Битрейт: 192 Кбит/сек
Каналы: 2 канала
Расположение каналов: Front: L R
Частота: 48,0 КГц
Битовая глубина: 16 бит
Метод сжатия: С потерями
Размер потока: 248 Мбайт (17%)










Поделиться:




реклама партнёра


Вернуться к началу
 Профиль Отправить личное сообщение  
 
   Похожие торренты   Автор   Торрент   Размер 
В этой теме нет новых непрочитанных сообщений. Император / Emperor [драма, военный, история, 2012] HDRip, Mvo

Dracon

737 | 12

1.36 ГБ

В этой теме нет новых непрочитанных сообщений. Колетт / Colette [драма, мелодрама, военный, история, 2013] HDRip, avo

Dracon

221 | 13

2.19 ГБ

В этой теме нет новых непрочитанных сообщений. Кочевник  / Nomad The Warrior [драма, военный, история, 2005] HDRip, Dub

salma3

1 | 2

1.47 ГБ

В этой теме нет новых непрочитанных сообщений. Мадрас-кафе / Madras Cafe [боевик, триллер, драма, военный, история, 2013] HDRip, Mvo+Sub

salma3

8 | 3

2.17 ГБ

В этой теме нет новых непрочитанных сообщений. Битва за тяжёлую воду / Kampen om tungtvannet [S01] (Пер-Олав Соренсен ) [драма, военный, история, 2015] HDRip, Avo

Dracon

1566 | 218

4.07 ГБ

В этой теме нет новых непрочитанных сообщений. Воспоминания о будущем / Testament of Youth (Джеймс Кент) [драма, военный, биография, история, 2014] HDRip, Dub [iTunes]

Dracon

3 | 0

1.46 ГБ

В этой теме нет новых непрочитанных сообщений. Каджаки: Правдивая история / Kajaki (Пол Катис) [триллер, драма, приключения, военный, 2014] HDRip [Lucky Strike]

Dracon

1446 | 52

1.46 ГБ


Начать новую тему Ответить на тему  [ 1 сообщение ] 




Для Мосгорсуда, Роскомнадзора и рекламодателей:: mosgorsud-torrent[собачка]yandex.ru