Торрент файл
скачать торрент магнет ссылка Добавлен: 15 янв 2012, 00:51
Размер: 1.46 ГБ
Сидеров: 120
Личеров: 6
Автор

СообщениеДобавлено: 15 янв 2012, 00:51 

Не в сети
Супермодератор
Аватара пользователя
Дата регистрации:
11 апр 2010, 18:10
Спасибо: 5802 / 7
Сообщения: 56779
Семь лет в Тибете /Seven Years in Tibet



Перевод: Профессиональный (полное дублирование),субтитры: отсутствуют
Формат: DVDRip-AVC, MKV, H.264, AC3
Страна: США, Великобритания
Жанр: драма, приключения, военный, биография, история
Продолжительность: 02:16:00
Режиссер: Жан-Жак Анно / Jean-Jacques Annaud
Год выпуска: 1997

В ролях: Брэд Питт, Дэвид Тьюлис, Б.Д. Вонг, Мако, Дэнни Дензонгпа, Виктор Вонг, Ингеборга Дапкунайте, Цзямъян Цзямцо Ванчук, Лакпа Тсамшо, Джетсун Пема

Описание:Генрих Харрер, офицер Рейха, человек, у которого было все — успех, красота, известность. Но ему было мало земной славы. Оставив дома беременную жену, он отправляется на покорение самого неприступного пика в Гималаях. Этот подвиг должен увековечить его имя.

Однако впереди его ждет не успешное восхождение, а смертельная опасность, вражеский плен, долгие скитания… Наконец он добирается до таинственного тибетского города Лхаса, где ему предстоит провести долгих семь лет, и где молодой Далай Лама делает его своим приближенным. И здесь, в стране, лежащей за границами цивилизации, ему придется пережить события, которые навсегда изменят его жизнь…


________

Видео: 912 x 376 (2:40:1),23,976 кадр/сек, AVC (х264), High@L3.0, ~ 1145 Kbps, 0.139 bit/pixel
Аудио: 48 kHz, AC3 Dolby Digital, 3/2 (L,C,R,l,r) + LFE ch, ~384 kbps


Автор РИПа:ddimmon22
Общее
Уникальный идентификатор: 214598922018149910772705440229794620930 (0xA1723FBE1F80A942B861AE466E7DA602)
Полное имя: I:\oktzbr rupu\seven_let_v_tibete_[tfile.ru].mkv
Формат: Matroska
Версия формата: Version 2
Размер файла: 1,46 Гбайт
Продолжительность: 2 ч. 16 м.
Общий поток: 1531 Кбит/сек
Дата кодирования: UTC 2011-10-14 22:56:26
Программа кодирования: mkvmerge v4.9.1 ('Ich will') сборка от Aug 10 2011 09:31:20
Библиотека кодирования: libebml v1.2.1 + libmatroska v1.2.0

Видео
Идентификатор: 1
Формат: AVC
Формат/Информация: Advanced Video Codec
Профиль формата: High@L3.0
Параметр CABAC формата: Да
Параметр ReFrames формата: 4 кадра
Идентификатор кодека: V_MPEG4/ISO/AVC
Продолжительность: 2 ч. 16 м.
Битрейт: 1145 Кбит/сек
Ширина: 912 пикс.
Высота: 376 пикс.
Соотношение сторон: 2,40:1
Частота кадров: 23,976 кадр/сек
Цветовое пространство: YUV
Подвыборка цветности: 4:2:0
Битовая глубина: 8 бит
Тип развёртки: Прогрессивная
Бит/(Пиксели*Кадры): 0.139
Размер потока: 1,06 Гбайт (73%)
Библиотека кодирования: x264 core 116 r2074 2641b9e
Настройки программы: cabac=1 / ref=3 / deblock=1:0:0 / analyse=0x3:0x113 / me=hex / subme=7 / psy=1 / psy_rd=1.00:0.00 / mixed_ref=1 / me_range=16 / chroma_me=1 / trellis=1 / 8x8dct=1 / cqm=0 / deadzone=21,11 / fast_pskip=1 / chroma_qp_offset=-2 / threads=6 / sliced_threads=0 / nr=0 / decimate=1 / interlaced=0 / bluray_compat=0 / constrained_intra=0 / bframes=3 / b_pyramid=2 / b_adapt=1 / b_bias=0 / direct=1 / weightb=1 / open_gop=0 / weightp=2 / keyint=250 / keyint_min=23 / scenecut=40 / intra_refresh=0 / rc_lookahead=40 / rc=2pass / mbtree=1 / bitrate=1145 / ratetol=1.0 / qcomp=0.60 / qpmin=0 / qpmax=69 / qpstep=4 / cplxblur=20.0 / qblur=0.5 / ip_ratio=1.40 / aq=1:1.00

Аудио
Идентификатор: 2
Формат: AC-3
Формат/Информация: Audio Coding 3
Расширение режима: CM (complete main)
Идентификатор кодека: A_AC3
Продолжительность: 2 ч. 16 м.
Вид битрейта: Постоянный
Битрейт: 384 Кбит/сек
Каналы: 6 каналов
Расположение каналов: Front: L C R, Side: L R, LFE
Частота: 48,0 КГц
Битовая глубина: 16 бит
Метод сжатия: С потерями
Размер потока: 374 Мбайт (25%)















Поделиться:




реклама партнёра


Вернуться к началу
 Профиль Отправить личное сообщение  
 
   Похожие торренты   Автор   Торрент   Размер 
В этой теме нет новых непрочитанных сообщений. Настоящая женщина / True Women [драма, мелодрама, вестерн, военный, биография, история, 1997] DVDRip, Mvo

salma3

26 | 4

1.37 ГБ

В этой теме нет новых непрочитанных сообщений. Кундун / Kundun [Драма, военный, биография, история, 1997] BDRip 1080p, Mvo+Avo+Sub

salma3

7 | 3

11.17 ГБ

В этой теме нет новых непрочитанных сообщений. Кундун / Kundun [драма, военный, биография, история, 1997] BDRip 720p, Mvo+Avo+Sub

salma3

21 | 8

6.91 ГБ

В этой теме нет новых непрочитанных сообщений. После юга / Après le sud (Жан-Жак Жоффре / Jean-Jacques Jauffret) [2011г., Франция, драма, арт-хаус, DVDRip] Sub

Alfredovich

102 | 4

1.37 ГБ

В этой теме нет новых непрочитанных сообщений. 12 лет рабства / 12 Years a Slave [драма, биография, история, 2013] WEB-DL 720p, Dub [iTunes]

Dracon

548 | 7

4.23 ГБ

В этой теме нет новых непрочитанных сообщений. 12 лет рабства / 12 Years a Slave [драма, биография, история, 2013] WEB-DLRip, Dub [iTunes]

Dracon

95 | 2

2.05 ГБ

В этой теме нет новых непрочитанных сообщений. 12 лет рабства / 12 Years a Slave [драма, биография, история, 2013] HDRip-AVC, Dub [iTunes]

Dracon

47 | 2

2.08 ГБ


Начать новую тему Ответить на тему  [ 1 сообщение ] 




Для Мосгорсуда, Роскомнадзора и рекламодателей:: mosgorsud-torrent[собачка]yandex.ru