Торрент файл
скачать торрент магнет ссылка Добавлен: 15 янв 2012, 00:50
Размер: 2.1 ГБ
Сидеров: 52
Личеров: 7
Автор

СообщениеДобавлено: 15 янв 2012, 00:50 

Не в сети
Супермодератор
Аватара пользователя
Дата регистрации:
11 апр 2010, 18:10
Спасибо: 5803 / 7
Сообщения: 56779
1492: Завоевание рая / 1492: Conquest of Paradise


Перевод: Профессиональный (многоголосый, закадровый), cубтитры: отсутствуют
Формат: HDRip-AVC, MKV, H.264, AC3
Страна: Франция, Испания
Режиссер: Ридли Скотт
Жанр: драма, приключения, биография, история
Продолжительность: 02:29:25
Год выпуска: 1992

В ролях: Жерар Депардье, Арманд Ассанте, Сигурни Уивер, Лорен Дин, Анхела Молина, Фернандо Рей, Майкл Уинкотт, Чеки Карио, Кевин Данн, Фрэнк Ланджелла

Описание: Великая мечта, ставшая реальностью всемирной истории. Генуэзский мореплаватель Христофор Колумб всю жизнь мечтал открыть новые пути в Индию. Много лет все только смеялись над его «безумными» проектами проложить морской маршрут на Восток через Запад. И все же Колумб смог убедить испанскую королеву Изабеллу профинансировать его экспедицию в далекие страны, богатые золотом и пряностями. Снарядив три небольшие каравеллы, Колумб отправился навстречу неизведанному… В этих великих путешествиях проявилось все величие и страстность эпохи, когда творилась История. Отвага и ослепление, триумф и отчаяние, высокомерие Старого и невинность Нового света, «завоевание рая», начало новой эры…



Видео: 960 x 408 (2.35:1), 25.000 fps, AVC, х264, High@L4.1, ~ 1630 Kbps Kbps, 0.166 bit/pixel
Аудио: 48 kHz, AC3 Dolby Digital, 3/2 (L,C,R,l,r) + LFE ch, ~384 kbps


Рип: jeenart

General
Unique ID: 252553258816907990676825868163833029555 (0xBDFFFD05DE814A07BB055ACC866263B3)
Complete name: F:\Мои релизы\Все релизы 10\1492_zavoevaniye_raya_[tfile.ru].mkv
Format: Matroska
File size: 2.10 GiB
Duration: 2h 29mn
Overall bit rate: 2 015 Kbps
Encoded date: UTC 2011-11-14 08:31:12
Writing application: mkvmerge v4.6.0 ('Still Crazy After All These Years') сборка от Apr1 2011 21:01:49
Writing library: libebml v1.2.0 + libmatroska v1.1.0

Video
ID: 1
Format: AVC
Format/Info: Advanced Video Codec
Format profile: High@L4.1
Format settings, CABAC: Yes
Format settings, ReFrames: 4 frames
Format settings, GOP: M=4, N=16
Codec ID: V_MPEG4/ISO/AVC
Duration: 2h 29mn
Bit rate: 1 630 Kbps
Width: 960 pixels
Height: 408 pixels
Display aspect ratio: 2.35:1
Frame rate: 25.000 fps
Color space: YUV
Chroma subsampling: 4:2:0
Bit depth: 8 bits
Scan type: Progressive
Bits/(Pixel*Frame): 0.166
Stream size: 1.66 GiB (79%)
Writing library: x264 core 115 r1937 aa21558
Encoding settings: cabac=1 / ref=3 / deblock=1:-1:-1 / analyse=0x3:0x113 / me=hex / subme=7 / psy=1 / psy_rd=1.00:0.10 / mixed_ref=1 / me_range=16 / chroma_me=1 / trellis=1 / 8x8dct=1 / cqm=0 / deadzone=21,11 / fast_pskip=1 / chroma_qp_offset=-3 / threads=6 / sliced_threads=0 / nr=0 / decimate=1 / interlaced=0 / bluray_compat=0 / constrained_intra=0 / bframes=3 / b_pyramid=2 / b_adapt=1 / b_bias=0 / direct=3 / weightb=1 / open_gop=0 / weightp=2 / keyint=250 / keyint_min=25 / scenecut=40 / intra_refresh=0 / rc_lookahead=40 / rc=2pass / mbtree=1 / bitrate=1630 / ratetol=1.0 / qcomp=0.60 / qpmin=0 / qpmax=69 / qpstep=4 / cplxblur=20.0 / qblur=0.5 / ip_ratio=1.40 / aq=1:1.00

Audio
ID: 2
Format: AC-3
Format/Info: Audio Coding 3
Mode extension: CM (complete main)
Codec ID: A_AC3
Duration: 2h 29mn
Bit rate mode: Constant
Bit rate: 384 Kbps
Channel(s): 6 channels
Channel positions: Front: L C R, Side: L R, LFE
Sampling rate: 48.0 KHz
Bit depth: 16 bits
Compression mode: Lossy
Stream size: 410 MiB (19%)















Поделиться:




реклама партнёра


Вернуться к началу
 Профиль Отправить личное сообщение  
 
   Похожие торренты   Автор   Торрент   Размер 
В этой теме нет новых непрочитанных сообщений. Исход: Цари и боги / Exodus: Gods and Kings (Ридли Скотт) [боевик, драма, приключения, 2014] HDRip, Dub [iTunes]

Dracon

364 | 5

1.37 ГБ

В этой теме нет новых непрочитанных сообщений. Исход: Цари и боги / Exodus: Gods and Kings (Ридли Скотт) [боевик, драма, приключения, 2014] HDRip, Dub [iTunes]

Dracon

167 | 7

2.74 ГБ

В этой теме нет новых непрочитанных сообщений. Исход: Цари и боги / Exodus: Gods and Kings (Ридли Скотт) [боевик, драма, приключения, 2014] HDRip, Dub [iTunes]

Dracon

223 | 8

2.05 ГБ

В этой теме нет новых непрочитанных сообщений. Марсианин / The Martian (Ридли Скотт) [Фантастика, приключения, 2015] HDRip-AVC, Dub+Sub [iTunes]

Dracon

1961 | 140

2.52 ГБ

В этой теме нет новых непрочитанных сообщений. Марсианин / The Martian (Ридли Скотт) [фантастика, приключения, 2015] HDRip, dub [iTunes]

Dracon

164 | 8

2.05 ГБ

В этой теме нет новых непрочитанных сообщений. Марсианин / The Martian (Ридли Скотт) [Фантастика, приключения, 2015] HDRip, dub [iTunes]

Dracon

846 | 17

1.37 ГБ

В этой теме нет новых непрочитанных сообщений. Исход: Цари и боги / Exodus: Gods and Kings (Ридли Скотт) [боевик, драма, приключения, 2014] BDRip-AVC, Dub+Sub [Лицензия]

Dracon

361 | 19

4.04 ГБ


Начать новую тему Ответить на тему  [ 1 сообщение ] 




Для Мосгорсуда, Роскомнадзора и рекламодателей:: mosgorsud-torrent[собачка]yandex.ru