Торрент файл
скачать торрент магнет ссылка Добавлен: 15 янв 2012, 00:32
Размер: 1.45 ГБ
Сидеров: 408
Личеров: 21
Автор

СообщениеДобавлено: 15 янв 2012, 00:32 

Не в сети
Супермодератор
Аватара пользователя
Дата регистрации:
11 апр 2010, 18:10
Спасибо: 5995 / 7
Сообщения: 56686
Ночь в музее / Night at the Museum

«Если история действительно оживает!»

Перевод: Профессиональный (полное дублирование)
Субтитры: отсутствуют
Формат: HDRip, MKV, H.264, AC3

Страна: США
Режиссер: Шон Леви
Жанр: комедия, приключения, семейный, фантастика

Продолжительность: 01:48:35
Год выпуска: 2006

В ролях: Бен Стиллер, Карла Гуджино, Дик Ван Дайк, Микки Руни, Билл Коббс, Джэйк Черри, Рики Джервэйс, Робин Уильямс, Ким Рэйвер, Патрик Галлахер

Описание: Молодой человек в поисках работы попадает в музей, где приступает к обязанностям ночного сторожа. Оказывается, не такая это простая работа, как могло показаться на первый взгляд. Ведь самое главное — не только не дать никому войти в музей, но и не позволить никому и ничему из музея выйти….







Видео: 720x392 (16:9), 23.976 fps, AVC MPEG-4 (х264) High@L5.1 ~1720 kbps avg, 0.254 bit/pixel
Аудио: 48 kHz, АС3, 2 ch, ~192 kbps avg

Рип от: TswetkOFF

Релиз-Группа:




General
Unique ID: 330784530165172394903615234972638273032 (0xF8DAC87E6324C326429E6650F57C5E0
Complete name: D:\Films\night_at_the_museum_[tfile.ru].mkv
Format: Matroska
File size: 1.45 GiB
Duration: 1h 48mn
Overall bit rate: 1 912 Kbps
Movie name: ~Sahaa~
Writing application: Lavf52.103.0
Writing library: Lavf52.103.0

Video
ID: 1
Format: AVC
Format/Info: Advanced Video Codec
Format profile: High@L5.1
Format settings, CABAC: Yes
Format settings, ReFrames: 3 frames
Codec ID: V_MPEG4/ISO/AVC
Duration: 1h 48mn
Bit rate: 1 720 Kbps
Width: 720 pixels
Height: 392 pixels
Display aspect ratio: 16:9
Original display aspect ratio: 16:9
Frame rate mode: Variable
Frame rate: 23.976 fps
Color space: YUV
Chroma subsampling: 4:2:0
Bit depth: 8 bits
Scan type: Progressive
Bits/(Pixel*Frame): 0.254
Stream size: 1.28 GiB (88%)
Writing library: x264 core 114 r1924M 08d04a4
Encoding settings: cabac=1 / ref=3 / deblock=1:0:0 / analyse=0x3:0x133 / me=hex / subme=7 / psy=1 / psy_rd=1.00:0.20 / mixed_ref=1 / me_range=16 / chroma_me=1 / trellis=1 / 8x8dct=1 / cqm=0 / deadzone=21,11 / fast_pskip=1 / chroma_qp_offset=-3 / threads=6 / sliced_threads=0 / nr=0 / decimate=1 / interlaced=0 / constrained_intra=0 / bframes=3 / b_pyramid=1 / b_adapt=2 / b_bias=0 / direct=3 / weightb=1 / open_gop=0 / weightp=2 / keyint=230 / keyint_min=23 / scenecut=40 / intra_refresh=0 / rc_lookahead=40 / rc=abr / mbtree=1 / bitrate=1720 / ratetol=1.0 / qcomp=0.60 / qpmin=10 / qpmax=51 / qpstep=4 / ip_ratio=1.40 / aq=1:1.00
Language: English / English

Audio
ID: 2
Format: AC-3
Format/Info: Audio Coding 3
Mode extension: CM (complete main)
Codec ID: A_AC3
Duration: 1h 48mn
Bit rate mode: Constant
Bit rate: 192 Kbps
Channel(s): 2 channels
Channel positions: Front: L R
Sampling rate: 48.0 KHz
Bit depth: 16 bits
Compression mode: Lossy
Stream size: 149 MiB (10%)
Title: Русский. Дубляж
Language: English / Russian

















Поделиться:



Вернуться к началу
 Профиль Отправить личное сообщение  
 
   Похожие торренты   Автор   Торрент   Размер 
В этой теме нет новых непрочитанных сообщений. Ночь в музее 2 / Night at the Museum: Battle of the Smithsonian [фэнтези, комедия, приключения, 2009] WEB-DL 1080, Dub [Open Matte]

salma3

16 | 8

15.57 ГБ

В этой теме нет новых непрочитанных сообщений. Странная ночь / Ночь странных вещей / Странная ночь Night of Something Strange [ужасы, комедия, 2016] HDRip, Avo

salma3

161 | 138

755.3 МБ

В этой теме нет новых непрочитанных сообщений. Ночь Гризли / The Night of the Grizzly [приключения, вестерн, 1966] HDRip, Mvo

salma3

0 | 0

1.45 ГБ

В этой теме нет новых непрочитанных сообщений. Инициация: Тихая ночь, смертельная ночь 4 / Initiation: Silent Night, Deadly Night 4 [ужасы, триллер, 1990] DVDRip, Avo

salma3

127 | 304

1.37 ГБ

В этой теме нет новых непрочитанных сообщений. Тихая ночь, смертельная ночь / Silent Night, Deadly Night [ужасы, триллер, слэшер, 1984] BDRip 720p, Avo

salma3

9 | 4

3.6 ГБ

В этой теме нет новых непрочитанных сообщений. Ночь властелина / Ночь пожирателей плоти / Night of the Flesh Eaters [ужасы, комедия, 2008] DVDRip, Dvo

salma3

111 | 23

1.46 ГБ

В этой теме нет новых непрочитанных сообщений. Ночь ползучих тварей / Night of the Creeps [ужасы, фантастика, комедия, 1986] BDRip, Avo

salma3

24 | 10

1.46 ГБ


Начать новую тему Ответить на тему  [ 1 сообщение ] 




Для Мосгорсуда, Роскомнадзора и рекламодателей:: mosgorsud-torrent[собачка]yandex.ru
cron