Торрент файл
скачать торрент магнет ссылка Добавлен: 15 янв 2012, 00:30
Размер: 1.36 ГБ
Сидеров: 10
Личеров: 6
Автор

СообщениеДобавлено: 15 янв 2012, 00:30 

Не в сети
Супермодератор
Аватара пользователя
Дата регистрации:
11 апр 2010, 18:10
Спасибо: 5802 / 7
Сообщения: 56779
Письма Богу / Letters to God


Перевод: Любительский (одноголосый), cубтитры: отсутствуют
Формат: HDRip-AVC, MKV, H.264, AC3
Страна: США
Режиссер: Дэвид Никсон
Жанр: драма, семейный
Продолжительность: 01:53:31
Год выпуска: 2010

В ролях: Робин Лайвли, Джеффри Джонсон, Тэннер Магвайр, Майкл Болтен, Мари Читхэм, Бэйли Мэдисон, Ральф Уэйт, Дэннис Нил, Крис Каннингэм, Кристофер Шмидт, Том Новиски, Дерек Леонидофф

Описание: Письма Богу юный Тайлер Доэрти пишет каждый день. Мальчик тяжело болен и только вера даёт ему мужество для борьбы со страшным недугом. Изумлённый почтальон Брейди Макдэниелс письма адресату, конечно же, не доставит. Зато прочтя их, вдохновится храбростью ребёнка и сможет найти в себе силы для борьбы со своей алкогольной зависимостью.



Видео: 1024 x 576 (1.77, 23.976 fps, AVC, х264, Baseline@L4.1, ~ 1 518 Kbps, 0.107 bit/pixel
Аудио: 48 kHz, AC3 Dolby Digital, 2/0 (L,R) 2ch, ~192 kbps

Релиз-Группа

Рип: jeenart
General
Unique ID: 186379664764454828043723554877798792565 (0x8C376AF0F959B172A491E5B0FBFEBD75)
Complete name: E:\РЕЛИЗЫ\Все релизы 16\pisma_bogu_[tfile.ru].mkv
Format: Matroska
File size: 1.36 GiB
Duration: 1h 53mn
Overall bit rate: 1 711 Kbps
Encoded date: UTC 2011-05-25 09:31:22
Writing application: mkvmerge v4.6.0 ('Still Crazy After All These Years') сборка от Apr1 2011 21:01:49
Writing library: libebml v1.2.0 + libmatroska v1.1.0

Video
ID: 1
Format: AVC
Format/Info: Advanced Video Codec
Format profile: Baseline@L4.1
Format settings, CABAC: No
Format settings, ReFrames: 3 frames
Codec ID: V_MPEG4/ISO/AVC
Duration: 1h 53mn
Bit rate: 1 518 Kbps
Width: 1 024 pixels
Height: 576 pixels
Display aspect ratio: 16:9
Frame rate: 23.976 fps
Color space: YUV
Chroma subsampling: 4:2:0
Bit depth: 8 bits
Scan type: Progressive
Bits/(Pixel*Frame): 0.107
Stream size: 1.18 GiB (87%)
Writing library: x264 core 115 r1937 aa21558
Encoding settings: cabac=0 / ref=3 / deblock=1:-1:-1 / analyse=0x1:0x111 / me=dia / subme=7 / psy=1 / psy_rd=1.00:0.10 / mixed_ref=1 / me_range=16 / chroma_me=1 / trellis=1 / 8x8dct=0 / cqm=0 / deadzone=21,11 / fast_pskip=1 / chroma_qp_offset=-3 / threads=6 / sliced_threads=0 / nr=0 / decimate=1 / interlaced=0 / bluray_compat=0 / constrained_intra=0 / bframes=0 / weightp=0 / keyint=250 / keyint_min=23 / scenecut=40 / intra_refresh=0 / rc_lookahead=40 / rc=2pass / mbtree=1 / bitrate=1518 / ratetol=1.0 / qcomp=0.60 / qpmin=0 / qpmax=69 / qpstep=4 / cplxblur=20.0 / qblur=0.5 / ip_ratio=1.40 / aq=1:1.00

Audio
ID: 2
Format: AC-3
Format/Info: Audio Coding 3
Mode extension: CM (complete main)
Codec ID: A_AC3
Duration: 1h 53mn
Bit rate mode: Constant
Bit rate: 192 Kbps
Channel(s): 2 channels
Channel positions: Front: L R
Sampling rate: 48.0 KHz
Bit depth: 16 bits
Compression mode: Lossy
Stream size: 156 MiB (11%)















Поделиться:




реклама партнёра


Вернуться к началу
 Профиль Отправить личное сообщение  
 
   Похожие торренты   Автор   Торрент   Размер 
В этой теме нет новых непрочитанных сообщений. Роковые письма / Red Letters [Драма, криминал, 2000] DVDRip, Dvo

salma3

21 | 3

1.45 ГБ

В этой теме нет новых непрочитанных сообщений. Письма убийцы / Letters from a Killer [Триллер, драма, криминал, детектив, 1998] DVDRip, Mvo

salma3

500 | 482

1.51 ГБ

В этой теме нет новых непрочитанных сообщений. Нечаянные письма / The Letter Writer [семейный, 2011] HDTV 1080i, Mvo

salma3

102 | 10

3.51 ГБ

В этой теме нет новых непрочитанных сообщений. Элвис и Никсон / Elvis & Nixon [Комедия, история, 2016] BDRip 1080p, Dub

salma3

100 | 41

8.6 ГБ

В этой теме нет новых непрочитанных сообщений. Defeater - Letters Home [2013, Melodic Hardcore, MP3]

PriZraK

0 | 2

79.21 МБ

В этой теме нет новых непрочитанных сообщений. Letters - Weekend On Jupiter [2013, Progressive Rock, MP3]

PriZraK

0 | 1

129.04 МБ

В этой теме нет новых непрочитанных сообщений. Судья / The Judge (Дэвид Добкин) [Драма, 2014] HDRip, Dub [Лицензия]

Dracon

15 | 2

2.05 ГБ


Начать новую тему Ответить на тему  [ 1 сообщение ] 




Для Мосгорсуда, Роскомнадзора и рекламодателей:: mosgorsud-torrent[собачка]yandex.ru