Торрент файл
скачать торрент магнет ссылка Добавлен: 15 янв 2012, 00:27
Размер: 1.28 ГБ
Сидеров: 43
Личеров: 11
Автор

СообщениеДобавлено: 15 янв 2012, 00:27 

Не в сети
Супермодератор
Аватара пользователя
Дата регистрации:
11 апр 2010, 18:10
Спасибо: 5960 / 7
Сообщения: 56765
Бетховен 5 / Beethoven's 5th


Перевод: Профессиональный (многоголосый, закадровый), cубтитры: отсутствуют

Формат: DVDRip, AVI, XviD, MP3

Страна: США

Режиссер: Марк Гриффитс

Жанр: комедия, приключения, семейный

Продолжительность: 01:30:47

Год выпуска: 2003

В ролях: Дэйв Томас, Фэйт Форд, Дэйви Чейз, Том Постон, Кэтрин Хелмонд, Сэмми Кан, Ричард Нихль, Клинт Ховард, Кэти Гриффин, Джон Ларрокетт

Описание: Когда Сара отправляется с сенбернаром на летние каникулы к своему дяде Фредди в маленький провинциальный городишко, она ещё не представляет, какие приключения поджидают их впереди, Каникулы начинаются весело: неугомонный пес «откопал» ключ к тайне клада, о котором в округе ходят легенды.

В одночасье начинается настоящая золотая лихорадка: местные жители, как одержимые, начинают искать сокровища и пытаются стать друзьями добряка Бетховена, который, как они считают, «унюхал» богатую добычу. Однако, как оказалось, найти клад — лишь часть проблемы: ведь искателям предстоит столкнуться с призраками, которые охраняют тайник!


[/field]

Видео: 640x336 (1.90:1), 23.976 fps, XviD Final 1.0 (build 34) ~1768 kbps avg, 0.34 bit/pixel
Аудио: 48 kHz, MPEG Layer 3, 2 ch, ~256.00 kbps avg

General
Complete name: E:\Загрузки\Bethoven_5.avi
Format: AVI
Format/Info: Audio Video Interleave
File size: 1.28 GiB
Duration: 1h 30mn
Overall bit rate: 2 028 Kbps
Writing application: VirtualDubModRus 1.5.10.2 (build 2542/release)
Writing library: VirtualDubMod build 2542/release

Video
ID: 0
Format: MPEG-4 Visual
Format profile: Advanced Simple@L5
Format settings, BVOP: No
Format settings, QPel: No
Format settings, GMC: No warppoints
Format settings, Matrix: Custom
Codec ID: XVID
Codec ID/Hint: XviD
Duration: 1h 30mn
Bit rate: 1 769 Kbps
Width: 640 pixels
Height: 336 pixels
Display aspect ratio: 1.905
Frame rate: 23.976 fps
Color space: YUV
Chroma subsampling: 4:2:0
Bit depth: 8 bits
Scan type: Progressive
Compression mode: Lossy
Bits/(Pixel*Frame): 0.343
Stream size: 1.12 GiB (87%)
Writing library: XviD 1.0.0 (UTC 2004-05-09)

Audio
ID: 1
Format: MPEG Audio
Format version: Version 1
Format profile: Layer 3
Mode: Joint stereo
Codec ID: 55
Codec ID/Hint: MP3
Duration: 1h 28mn
Bit rate mode: Constant
Bit rate: 256 Kbps
Channel(s): 2 channels
Sampling rate: 48.0 KHz
Compression mode: Lossy
Delay relative to video: 2s 976ms
Stream size: 162 MiB (12%)
Alignment: Split accross interleaves
Interleave, duration: 43 ms (1.03 video frame)
Interleave, preload duration: 504 ms
Language: Russian / Russian









Поделиться:




реклама партнёра


Вернуться к началу
 Профиль Отправить личное сообщение  
 
   Похожие торренты   Автор   Торрент   Размер 
В этой теме нет новых непрочитанных сообщений. Бетховен 3 / Beethoven's 3rd [комедия, семейный, 2000] WEB-DL 1080p, Mvo

salma3

8 | 7

9.28 ГБ

В этой теме нет новых непрочитанных сообщений. Бетховен 4 / Beethoven's 4th [комедия, семейный, 2001] WEB-DL 1080p, Mvo

salma3

8 | 4

7.52 ГБ

В этой теме нет новых непрочитанных сообщений. Бетховен / Beethoven [комедия, семейный, драма, 1992] BDRemux 1080p, Mvo

salma3

4 | 6

22.39 ГБ

В этой теме нет новых непрочитанных сообщений. Бетховен / Beethoven [драма, комедия, семейный, 1992] BDRip 1080p, Dub

salma3

11 | 10

11.8 ГБ

В этой теме нет новых непрочитанных сообщений. Бетховен 2 / Beethoven's 2nd [мелодрама, комедия, семейный, 1993] BDRip 1080p, Dub

salma3

14 | 9

7.39 ГБ

В этой теме нет новых непрочитанных сообщений. Бетховен / Beethoven [драма, комедия, семейный, 1992] BDRip 720p, Dub

salma3

19 | 15

7.46 ГБ

В этой теме нет новых непрочитанных сообщений. Мой лучший роман / A Novel Romance (Марк Гриффитс) [мелодрама, 2014] HDTVRip, avo

Dracon

450 | 10

1.46 ГБ


Начать новую тему Ответить на тему  [ 1 сообщение ] 




Для Мосгорсуда, Роскомнадзора и рекламодателей:: mosgorsud-torrent[собачка]yandex.ru