Торрент файл
скачать торрент магнет ссылка Добавлен: 15 янв 2012, 00:26
Размер: 2.01 ГБ
Сидеров: 37
Личеров: 8
Автор

СообщениеДобавлено: 15 янв 2012, 00:26 

Не в сети
Супермодератор
Аватара пользователя
Дата регистрации:
11 апр 2010, 18:10
Спасибо: 5802 / 7
Сообщения: 56779
Бунт ушастых / Hop


Перевод: Профессиональный (полное дублирование), cубтитры: отсутствуют
Формат: HDRip-AVC, MKV, H.264, AC3
Страна: США
Режиссер: Тим Хилл
Жанр: мультфильм, фэнтези, комедия, семейный
Продолжительность: 01:35:00
Год выпуска: 2011

В ролях: Джеймс Марсден, Расселл Брэнд, Кейли Куоко, Хэнк Азария, Гэри Коул, Элизабет Перкинс, Хью Лори, Тиффани Эспенсен, Дэвид Хэсселхофф, Челси Хэндлер

Описание: Безработный лоботряс Фред однажды сбивает машиной Пасхального кролика. Пока сказочный грызун поправляет здоровье, герой вынужден занять его место, приступив к раздаче крашеных яиц детишкам по всему миру.



Видео: 848 x 456 (1:85:1), 23.976 fps, AVC, х264, High@L4.1, ~ 2636 Kbps, 0.284 bit/pixel
Аудио: 48 kHz, AC3 Dolby Digital, 3/2 (L,C,R,l,r) + LFE ch, ~384 kbps


Рип: jeenart

General
Unique ID: 208695408959257710494742216134171315843 (0x9D014613A21369ADA4AC144C6B904E83)
Complete name: F:\Мои релизы\Все релизы 10\bunt_yshastyh_[tfile.ru].mkv
Format: Matroska
File size: 2.01 GiB
Duration: 1h 35mn
Overall bit rate: 3 022 Kbps
Encoded date: UTC 2011-08-17 08:42:16
Writing application: mkvmerge v4.6.0 ('Still Crazy After All These Years') сборка от Apr1 2011 21:01:49
Writing library: libebml v1.2.0 + libmatroska v1.1.0

Video
ID: 1
Format: AVC
Format/Info: Advanced Video Codec
Format profile: High@L4.1
Format settings, CABAC: Yes
Format settings, ReFrames: 4 frames
Format settings, GOP: M=4, N=32
Codec ID: V_MPEG4/ISO/AVC
Duration: 1h 35mn
Bit rate: 2 636 Kbps
Width: 848 pixels
Height: 456 pixels
Display aspect ratio: 1.860
Frame rate: 23.976 fps
Color space: YUV
Chroma subsampling: 4:2:0
Bit depth: 8 bits
Scan type: Progressive
Bits/(Pixel*Frame): 0.284
Stream size: 1.71 GiB (85%)
Writing library: x264 core 115 r1937 aa21558
Encoding settings: cabac=1 / ref=3 / deblock=1:-1:-1 / analyse=0x3:0x113 / me=hex / subme=7 / psy=1 / psy_rd=1.00:0.10 / mixed_ref=1 / me_range=16 / chroma_me=1 / trellis=1 / 8x8dct=1 / cqm=0 / deadzone=21,11 / fast_pskip=1 / chroma_qp_offset=-3 / threads=6 / sliced_threads=0 / nr=0 / decimate=1 / interlaced=0 / bluray_compat=0 / constrained_intra=0 / bframes=3 / b_pyramid=2 / b_adapt=1 / b_bias=0 / direct=1 / weightb=1 / open_gop=0 / weightp=2 / keyint=250 / keyint_min=23 / scenecut=40 / intra_refresh=0 / rc_lookahead=40 / rc=2pass / mbtree=1 / bitrate=2636 / ratetol=1.0 / qcomp=0.60 / qpmin=0 / qpmax=69 / qpstep=4 / cplxblur=20.0 / qblur=0.5 / ip_ratio=1.40 / aq=1:1.00

Audio
ID: 2
Format: AC-3
Format/Info: Audio Coding 3
Mode extension: CM (complete main)
Codec ID: A_AC3
Duration: 1h 35mn
Bit rate mode: Constant
Bit rate: 384 Kbps
Channel(s): 6 channels
Channel positions: Front: L C R, Side: L R, LFE
Sampling rate: 48.0 KHz
Bit depth: 16 bits
Compression mode: Lossy
Stream size: 261 MiB (13%)
























Поделиться:




реклама партнёра


Вернуться к началу
 Профиль Отправить личное сообщение  
 
   Похожие торренты   Автор   Торрент   Размер 
В этой теме нет новых непрочитанных сообщений. Аисты / Storks (мультфильм, фэнтези, комедия, семейный, приключения, 2016) HDRip от Scarabey | iTunes

marya111

0 | 0

745.24 МБ

В этой теме нет новых непрочитанных сообщений. Аисты / Storks [мультфильм, фэнтези, комедия, приключения, семейный, 2016] HDRip, Dub [чистый звук]

salma3

6309 | 583

1.37 ГБ

В этой теме нет новых непрочитанных сообщений. Дом / Home (Тим Джонсон) [мультфильм, фантастика, фэнтези, комедия, приключения, семейный, 2015] HDRip, Dub [iTunes]

Dracon

6 | 0

1.37 ГБ

В этой теме нет новых непрочитанных сообщений. Как приручить дракона 2 / How to Train Your Dragon 2 [мультфильм, фэнтези, комедия, приключения, семейный, 2014] HDRip, Dub [лицензия]

Dracon

250 | 9

1.37 ГБ

В этой теме нет новых непрочитанных сообщений. Лего. Фильм / The Lego Movie [мультфильм, фэнтези, комедия, приключения, семейный, 2014] HDRip, Dub [Лицензия]

Dracon

810 | 27

2.05 ГБ

В этой теме нет новых непрочитанных сообщений. Лего. Фильм / The Lego Movie [мультфильм, фэнтези, комедия, приключения, семейный, 2014] HDRip, Dub [iTunes Russia]

Dracon

226 | 6

1.37 ГБ

В этой теме нет новых непрочитанных сообщений. Хороший динозавр / The Good Dinosaur [Мультфильм, фэнтези, комедия, приключения, семейный, 2015] HDRip, dub [чистый звук]

Dracon

442 | 33

1.37 ГБ


Начать новую тему Ответить на тему  [ 1 сообщение ] 




Для Мосгорсуда, Роскомнадзора и рекламодателей:: mosgorsud-torrent[собачка]yandex.ru