Торрент файл
скачать торрент магнет ссылка Добавлен: 15 янв 2012, 00:26
Размер: 745.32 МБ
Сидеров: 29
Личеров: 8
Автор

СообщениеДобавлено: 15 янв 2012, 00:26 

Не в сети
Супермодератор
Аватара пользователя
Дата регистрации:
11 апр 2010, 18:10
Спасибо: 5802 / 7
Сообщения: 56779
Бунт ушастых / Hop

«Конфетки, цыпочки и рок-н-ролл»

Перевод: Профессиональный (полное дублирование)
Субтитры:отсутствуют
Формат: LowHDRip, MKV, H.264, AC3

Страна: США
Режиссер: Тим Хилл
Жанр: мультфильм, фэнтези, комедия, семейный

Продолжительность: 01:35:00
Год выпуска: 2011

В ролях: Джеймс Марсден, Расселл Брэнд, Кейли Куоко, Хэнк Азария, Гэри Коул, Элизабет Перкинс, Хью Лори, Тиффани Эспенсен, Дэвид Хэсселхофф, Челси Хэндлер

Описание: Безработный лоботряс Фред однажды сбивает машиной Пасхального кролика. Пока сказочный грызун поправляет здоровье, герой вынужден занять его место, приступив к раздаче крашеных яиц детишкам по всему миру.







Видео: 704x384 (16:9), 23.976 fps, AVC (x264) High@L4.1 ~967 kbps avg, 0.15 bit/pixel
Аудио: 48 kHz, AC3, 2 ch, ~128.00 kbps avg

Рип от:TswetkOFF
Релиз-Группа:




General
Unique ID: 189739225216635583558367720512658356510 (0x8EBE720F5D817F44B6D93D72DAF8391E)
Complete name: D:\Films\hop_[tfile.ru].mkv
Format: Matroska
File size: 745 MiB
Duration: 1h 35mn
Overall bit rate: 1 097 Kbps
Encoded date: UTC 2011-08-17 13:53:09
Writing application: mkvmerge v4.6.0 ('Still Crazy After All These Years') сборка от Apr1 2011 21:01:49
Writing library: libebml v1.2.0 + libmatroska v1.1.0

Video
ID: 1
Format: AVC
Format/Info: Advanced Video Codec
Format profile: High@L4.1
Format settings, CABAC: Yes
Format settings, ReFrames: 4 frames
Format settings, GOP: M=4, N=32
Codec ID: V_MPEG4/ISO/AVC
Duration: 1h 35mn
Bit rate: 967 Kbps
Width: 704 pixels
Height: 384 pixels
Display aspect ratio: 16:9
Frame rate: 23.976 fps
Color space: YUV
Chroma subsampling: 4:2:0
Bit depth: 8 bits
Scan type: Progressive
Bits/(Pixel*Frame): 0.149
Stream size: 644 MiB (86%)
Writing library: x264 core 115 r1937 aa21558
Encoding settings: cabac=1 / ref=2 / deblock=1:-1:-1 / analyse=0x3:0x113 / me=hex / subme=6 / psy=1 / psy_rd=1.00:0.20 / mixed_ref=1 / me_range=16 / chroma_me=1 / trellis=1 / 8x8dct=1 / cqm=0 / deadzone=21,11 / fast_pskip=1 / chroma_qp_offset=-3 / threads=3 / sliced_threads=0 / nr=0 / decimate=0 / interlaced=0 / bluray_compat=0 / constrained_intra=0 / bframes=3 / b_pyramid=2 / b_adapt=1 / b_bias=0 / direct=1 / weightb=1 / open_gop=0 / weightp=1 / keyint=250 / keyint_min=23 / scenecut=40 / intra_refresh=0 / rc_lookahead=30 / rc=2pass / mbtree=1 / bitrate=967 / ratetol=1.0 / qcomp=0.60 / qpmin=0 / qpmax=69 / qpstep=4 / cplxblur=20.0 / qblur=0.5 / ip_ratio=1.40 / aq=1:1.00

Audio
ID: 2
Format: AC-3
Format/Info: Audio Coding 3
Mode extension: CM (complete main)
Codec ID: A_AC3
Duration: 1h 35mn
Bit rate mode: Constant
Bit rate: 128 Kbps
Channel(s): 2 channels
Channel positions: Front: L R
Sampling rate: 48.0 KHz
Bit depth: 16 bits
Compression mode: Lossy
Stream size: 87.0 MiB (12%)















Поделиться:




реклама партнёра


Вернуться к началу
 Профиль Отправить личное сообщение  
 
   Похожие торренты   Автор   Торрент   Размер 
В этой теме нет новых непрочитанных сообщений. Бабай (мультфильм, приключения, комедия, фэнтези, семейный. 2014) WEB-DLRip

Aleksandr.ru

2459 | 93

1.2 ГБ

В этой теме нет новых непрочитанных сообщений. Аисты / Storks (мультфильм, фэнтези, комедия, семейный, приключения, 2016) TS | D

marya111

5162 | 479

1.37 ГБ

В этой теме нет новых непрочитанных сообщений. Моана / Moana (мультфильм, мюзикл, фэнтези, комедия, приключения, семейный, 2016) TS | D

marya111

3157 | 395

1.37 ГБ

В этой теме нет новых непрочитанных сообщений. Аисты / Storks [Мультфильм, фэнтези, комедия, семейный, 2016] BDRip, Dub [iTunes]

salma3

19774 | 2742

1.42 ГБ

В этой теме нет новых непрочитанных сообщений. 7 гномов / The 7D / 1 сезон: 1-47 серии из 47 [мультфильм, фэнтези, комедия, семейный, 2014] SATRip, Dub

salma3

23 | 12

9.02 ГБ

В этой теме нет новых непрочитанных сообщений. Дом / Home (Тим Джонсон) [мультфильм, фантастика, фэнтези, комедия, приключения, семейный, 2015] CAMRip, dub

Dracon

1668 | 25

1.37 ГБ

В этой теме нет новых непрочитанных сообщений. Лего. Фильм / The Lego Movie [мультфильм, фэнтези, комедия, приключения, семейный, 2014] TS, dub

Dracon

42 | 2

1.37 ГБ


Начать новую тему Ответить на тему  [ 1 сообщение ] 




Для Мосгорсуда, Роскомнадзора и рекламодателей:: mosgorsud-torrent[собачка]yandex.ru