Торрент файл
скачать торрент магнет ссылка Добавлен: 15 янв 2012, 00:24
Размер: 1.37 ГБ
Сидеров: 29
Личеров: 5
Автор

СообщениеДобавлено: 15 янв 2012, 00:24 

Не в сети
Супермодератор
Аватара пользователя
Дата регистрации:
11 апр 2010, 18:10
Спасибо: 5798 / 7
Сообщения: 56779
Каспер / Casper

Перевод: Профессиональный (двухголосый) - [Петр Гланц, Татьяна Казакова], cубтитры: отсутствуют
Формат: HDTVRip-AVC, MKV, AVC, AC3
Страна: США
Режиссер: Брэд Силберлинг / Brad Silberling
Жанр: фантастика, комедия, семейный
Продолжительность: 01:35:52
Год выпуска: 1995
В ролях: Билл Пуллмэн, Кристина Риччи, Кэти Мориарти, Эрик Айдл, Бен Стайн, Дон Новелло, Фред Роджерс, Терри Мерфи, Чонси Леопарди, Спенсер Врумэн, Мэлэки Пирсон, Эрнестина Мерсер, Даг Брукнер, Джо Нипоут, Джо Элэски
Описание:
По мультфильмам многие уже наверняка знакомы с забавным маленьким привидением по имени "Каспер", о котором рассказывает этот полнометражный художественный фильм. Каспер живет в старом особняке в поместье Уипстафф вместе с тремя другими призраками, но не такими милыми и хорошими как он. Совсем наоборот. И вот туда приезжает со своей дочерью специалист по привидениям, который надеется вернуть с того света свою умершую жену. А пригласила его злая тетя, получившая поместье в наследство от отца. Она узнала, что в доме где-то спрятано золото, но ей нужно выгнать всех призраков. О том, как Каспер подружился с девочкой и о других необычайных приключениях, вы узнаете сами, посмотрев эту добрую и трогательную картину. Хорошие спецэффекты с элементами трехмерной мультипликации.




Видео:1024 x 576(1.77 , 25.000 fps, AVC, х264, High@L4.1, ~ 1655Kbps 0.112 bit/pixel
Аудио: 48 kHz, AC3 Dolby Digital, 3/2 (L,C,R,l,r) + LFE ch, ~384.00 kbps avg


Общее
Уникальный идентификатор: 242909113947005298096678810863975154031 (0xB6BE97F83C150A60B3727090E9AA416F)
Полное имя: F:\new_torrent\Casper.mkv
Формат: Matroska
Размер файла: 1,37 Гбайт
Продолжительность: 1 ч. 35 м.
Общий поток: 2040 Кбит/сек
Дата кодирования: UTC 2011-08-05 21:10:07
Программа кодирования: mkvmerge v4.6.0 ('Still Crazy After All These Years') сборка от Apr1 2011 21:01:49
Библиотека кодирования: libebml v1.2.0 + libmatroska v1.1.0

Видео
Идентификатор: 1
Формат: AVC
Формат/Информация: Advanced Video Codec
Профиль формата: High@L4.1
Параметр CABAC формата: Да
Параметр ReFrames формата: 4 кадры
Параметры GOP формата: M=1, N=12
Идентификатор кодека: V_MPEG4/ISO/AVC
Продолжительность: 1 ч. 35 м.
Битрейт: 1655 Кбит/сек
Ширина: 1024 пикс.
Высота: 576 пикс.
Соотношение сторон: 16:9
Частота кадров: 25,000 кадр/сек
Цветовое пространство: YUV
Подвыборка цветности: 4:2:0
Битовая глубина: 8 бит
Тип развёртки: Прогрессивная
Бит/(Пиксели*Кадры): 0.112
Размер потока: 1,08 Гбайт (79%)
Библиотека кодирования: x264 core 115 r1937 aa21558
Настройки программы: cabac=1 / ref=2 / deblock=1:-1:-1 / analyse=0x3:0x113 / me=hex / subme=6 / psy=1 / psy_rd=1.00:0.10 / mixed_ref=0 / me_range=16 / chroma_me=1 / trellis=1 / 8x8dct=1 / cqm=0 / deadzone=21,11 / fast_pskip=1 / chroma_qp_offset=-3 / threads=6 / sliced_threads=0 / nr=0 / decimate=1 / interlaced=0 / bluray_compat=0 / constrained_intra=0 / bframes=2 / b_pyramid=2 / b_adapt=2 / b_bias=0 / direct=3 / weightb=1 / open_gop=0 / weightp=1 / keyint=250 / keyint_min=25 / scenecut=40 / intra_refresh=0 / rc_lookahead=30 / rc=2pass / mbtree=1 / bitrate=1655 / ratetol=1.0 / qcomp=0.60 / qpmin=15 / qpmax=47 / qpstep=3 / cplxblur=20.0 / qblur=0.5 / ip_ratio=1.40 / aq=1:1.10

Аудио
Идентификатор: 2
Формат: AC-3
Формат/Информация: Audio Coding 3
Расширение режима: CM (complete main)
Идентификатор кодека: A_AC3
Продолжительность: 1 ч. 35 м.
Вид битрейта: Постоянный
Битрейт: 384 Кбит/сек
Канал(ы): 6 канала(ов)
Расположение каналов: Front: L C R, Side: L R, LFE
Частота: 48,0 КГц
Битовая глубина: 16 бит
Метод сжатия: С потерями
Размер потока: 263 Мбайт (19%)
[/field]








Поделиться:




реклама партнёра


Вернуться к началу
 Профиль Отправить личное сообщение  
 
   Похожие торренты   Автор   Торрент   Размер 
В этой теме нет новых непрочитанных сообщений. Каспер / Casper [Фэнтези, комедия, семейный, 1995] BDRemux 1080p, 2Dvo+2mvo+3Avo+Sub

salma3

12 | 5

29.9 ГБ

В этой теме нет новых непрочитанных сообщений. Каспер / Casper [Фэнтези, комедия, семейный, 1995] BDRip 1080p, 2Dvo+2mvo+3Avo+Sub

salma3

46 | 8

9.69 ГБ

В этой теме нет новых непрочитанных сообщений. Древние / Первородные / The Originals [02x01-16] (Брэд Тернер) [2014, ужасы, фантастика, драма, HDTVRip | Kerob]

Nickolas3435

54 | 261

6.11 ГБ

В этой теме нет новых непрочитанных сообщений. Древние / Первородные / The Originals [02x01-18] (Брэд Тернер) [2014, ужасы, фантастика, драма, HDTVRip | Kerob]

Nickolas3435

45 | 63

6.88 ГБ

В этой теме нет новых непрочитанных сообщений. Древние / Первородные / The Originals [02x01-05] (Брэд Тернер) [2014, ужасы, фантастика, драма, HDTVRip | Kerob]

Nickolas3435

106 | 159

1.99 ГБ

В этой теме нет новых непрочитанных сообщений. Древние / Первородные / The Originals [02x01-04] (Брэд Тернер) [2014, ужасы, фантастика, драма, HDTVRip | Kerob]

Nickolas3435

91 | 202

1.57 ГБ

В этой теме нет новых непрочитанных сообщений. Древние / Первородные / The Originals [02x01-09] (Брэд Тернер) [2014, ужасы, фантастика, драма, HDTVRip | Kerob]

Nickolas3435

114 | 170

3.54 ГБ


Начать новую тему Ответить на тему  [ 1 сообщение ] 




Для Мосгорсуда, Роскомнадзора и рекламодателей:: mosgorsud-torrent[собачка]yandex.ru