Торрент файл
скачать торрент магнет ссылка Добавлен: 15 янв 2012, 00:21
Размер: 2.2 ГБ
Сидеров: 6
Личеров: 6
Автор

СообщениеДобавлено: 15 янв 2012, 00:21 

Не в сети
Супермодератор
Аватара пользователя
Дата регистрации:
11 апр 2010, 18:10
Спасибо: 5801 / 7
Сообщения: 56779
Дэрил / D.A.R.Y.L.

Перевод: Профессиональный (многоголосый, закадровый), cубтитры: отсутствуют
Формат: HDTVRip-AVC, MKV, H.264, AC3
Страна: США, Великобритания
Режиссер: Саймон Уинсер
Жанр: фантастика, семейный
Продолжительность: 01:40:05
Год выпуска: 1985
В ролях: Мэри Бет Херт, Майкл МакКин, Кэтрин Уолкер, Коллин Кэмп, Йозеф Зоммер, Рон Фрэзиер, Стив Райан, Дэвид Уол, Дэнни Коркилл, Эми Линкер
Описание: Молодая супружеская пара усыновляет найденного в лесу мальчика, который страдает частичной потерей памяти, но обладает уникальными способностями. Он научился играть на пианино за несколько минут, в школе показал потрясающие знания, а в бейсбол играл на зависть профессионалам.
Он был идеальным сыном, что казалось несколько странным.И подозрения оказались не беспочвенными...


Видео: 1280x536 (2,40:1), 29,970 fps, MPEG4 AVC (х264), High@L4.1 ~2500kbps avg, 0.122 bit/pixel
Аудио#1:Русский: 48 kHz,AC-3, 2 ch, ~256.00 kbps avg [Профессиональный (многоголосый, закадровый)]
Аудио#2:Английский: 48 kHz, AC-3, 6 ch, ~384.00 kbps avg [Оригинал]


Автор РИПа:
Общее
Уникальный идентификатор : 211598658456183950257218456401134188295 (0x9F306B540D8121168BCD959384A77707)
Полное имя : f:\Downloads\deril_[tfile.ru].mkv
Формат : Matroska
Размер файла : 2,20 Гбайт
Продолжительность : 1 ч. 40 м.
Общий поток : 3153 Кбит/сек
Дата кодирования : UTC 2011-10-27 18:16:01
Программа кодирования : mkvmerge v4.6.0 ('Still Crazy After All These Years') сборка от Mar 10 2011 02:50:32
Библиотека кодирования : libebml v1.2.0 + libmatroska v1.1.0

Видео
Идентификатор : 1
Формат : AVC
Формат/Информация : Advanced Video Codec
Профиль формата : High@L4.1
Параметр CABAC формата : Да
Параметр ReFrames формата : 3 кадра
Параметры GOP формата : M=1, N=6
Режим смешивания : Header stripping
Идентификатор кодека : V_MPEG4/ISO/AVC
Продолжительность : 1 ч. 40 м.
Битрейт : 2500 Кбит/сек
Ширина : 1280 пикс.
Высота : 536 пикс.
Соотношение сторон : 2,40:1
Соотношение сторон в оригинале : 2,40:1
Режим частоты кадров : Переменный
Частота кадров : 29,970 кадр/сек
Цветовое пространство : YUV
Подвыборка цветности : 4:2:0
Битовая глубина : 8 бит
Тип развёртки : MBAFF
Бит/(Пиксели*Кадры) : 0.122
Размер потока : 1,71 Гбайт (78%)
Библиотека кодирования : x264 core 116 r2019M 9cc407d
Настройки программы : cabac=1 / ref=3 / deblock=1:-1:-1 / analyse=0x3:0x133 / me=hex / subme=7 / psy=1 / psy_rd=1.00:0.15 / mixed_ref=1 / me_range=16 / chroma_me=1 / trellis=1 / 8x8dct=1 / cqm=0 / deadzone=21,11 / fast_pskip=1 / chroma_qp_offset=-3 / threads=8 / sliced_threads=0 / nr=0 / decimate=1 / interlaced=tff / bluray_compat=0 / constrained_intra=0 / bframes=3 / b_pyramid=1 / b_adapt=2 / b_bias=0 / direct=3 / weightb=1 / open_gop=0 / weightp=0 / keyint=290 / keyint_min=29 / scenecut=40 / intra_refresh=0 / rc_lookahead=40 / rc=abr / mbtree=1 / bitrate=2500 / ratetol=1.0 / qcomp=0.60 / qpmin=10 / qpmax=51 / qpstep=4 / vbv_maxrate=31250 / vbv_bufsize=31250 / nal_hrd=none / ip_ratio=1.40 / aq=1:1.00
Язык : English

Аудио #1
Идентификатор : 2
Формат : AC-3
Формат/Информация : Audio Coding 3
Расширение режима : CM (complete main)
Режим смешивания : Header stripping
Идентификатор кодека : A_AC3
Продолжительность : 1 ч. 40 м.
Вид битрейта : Постоянный
Битрейт : 256 Кбит/сек
Каналы : 2 канала
Расположение каналов : Front: L R
Частота : 48,0 КГц
Битовая глубина : 16 бит
Метод сжатия : С потерями
Размер потока : 183 Мбайт (8%)
Заголовок : MVO
Язык : Russian

Аудио #2
Идентификатор : 3
Формат : AC-3
Формат/Информация : Audio Coding 3
Расширение режима : CM (complete main)
Режим смешивания : Header stripping
Идентификатор кодека : A_AC3
Продолжительность : 1 ч. 40 м.
Вид битрейта : Постоянный
Битрейт : 384 Кбит/сек
Каналы : 6 каналов
Расположение каналов : Front: L C R, Side: L R, LFE
Частота : 48,0 КГц
Битовая глубина : 16 бит
Метод сжатия : С потерями
Размер потока : 275 Мбайт (12%)
Язык : English












Поделиться:




реклама партнёра


Вернуться к началу
 Профиль Отправить личное сообщение  
 
   Похожие торренты   Автор   Торрент   Размер 
В этой теме нет новых непрочитанных сообщений. Битва за Скайарк / Battle for Skyark (Саймон Хунг) [Фантастика, Боевик, Приключения, Семейный, 2015] HDRip, avo

Dracon

3 | 0

1.37 ГБ

В этой теме нет новых непрочитанных сообщений. Исследователи / Explorers [Фантастика, фэнтези, приключения, семейный, 1985] HDTV 1080i, Mvo

salma3

24 | 5

3.83 ГБ

В этой теме нет новых непрочитанных сообщений. Бездельницы / Drifters [03x01 из 06] (Саймон Делани) [2015, комедия, HDTVRip | HamsterStudio]

Nickolas3435

24 | 1

273.26 МБ

В этой теме нет новых непрочитанных сообщений. Бездельницы / Drifters [03x01-02 из 06] (Саймон Делани) [2015, комедия, HDTVRip | HamsterStudio]

Dracon

1 | 43

546.51 МБ

В этой теме нет новых непрочитанных сообщений. Пингвины Мадагаскара / The Penguins of Madagascar (Эрик Дарнелл, Саймон Дж. Смит) [мультфильм, комедия, приключения, семейный, 2014] HDRip, Dub [iTunes]

Dracon

206 | 7

1.37 ГБ

В этой теме нет новых непрочитанных сообщений. Пингвины Мадагаскара / Penguins of Madagascar (Эрик Дарнелл, Саймон Дж. Смит) [мультфильм, комедия, приключения, семейный, 2014] BDRip, Dub [лицензия]

Dracon

2263 | 73

1.36 ГБ

В этой теме нет новых непрочитанных сообщений. Пингвины Мадагаскара / Penguins of Madagascar (Эрик Дарнелл, Саймон Дж. Смит) [мультфильм, комедия, приключения, семейный, 2014] WEB-DL 720p, Dub+Sub [iTunes]

Dracon

11 | 3

3 ГБ


Начать новую тему Ответить на тему  [ 1 сообщение ] 




Для Мосгорсуда, Роскомнадзора и рекламодателей:: mosgorsud-torrent[собачка]yandex.ru