Торрент файл
скачать торрент магнет ссылка Добавлен: 15 янв 2012, 00:17
Размер: 2.17 ГБ
Сидеров: 96
Личеров: 13
Автор

СообщениеДобавлено: 15 янв 2012, 00:17 

Не в сети
Супермодератор
Аватара пользователя
Дата регистрации:
11 апр 2010, 18:10
Спасибо: 5962 / 7
Сообщения: 56762
Белый плен / Eight Below

Перевод: Профессиональный (полное дублирование), cубтитры: отсутствуют
Формат: HDRip-AVC, MKV, H.264, AC3
Страна: США
Режиссер: Фрэнк Маршалл
Жанр: драма, мелодрама, приключения, семейный
Продолжительность: 02:00:24
Год выпуска: 2006
В ролях: Пол Уокер, Брюс Гринвуд, Мун Бладгуд, Венди Крюсон, Джерард Планкет, Аугуст Шелленберг, Джейсон Биггз
Описание: Действие фильма разворачивается на бескрайних просторах Антарктики. Научная экспедиция, в состав которой входят Джерри Шепард, его лучший друг Купер и геолог, отправляется на поиски метеорита. Однако неожиданное происшествие и тяжелые погодные условия вынуждают их оставить свои собачьи упряжки и вернуться назад. И теперь восемь собак должны в течение шести месяцев бороться за выживание в ледяной пустыне и ждать, пока их спасут…

Видео: 1024х424 (2,40:1), 23,976 fps, AVC (х264), High@L4.1, ~ 2210 Kbps, 0.212 bit/pixel
Аудио: 48 kHz, AC3 Dolby Digital, 3/2 (L,C,R,l,r) + LFE ch, ~384 kbps
Релиз от
Релиз группы

Видео:
Идентификатор: 1
Формат: AVC
Формат/Информация: Advanced Video Codec
Профиль формата: High@L4.1
Параметр CABAC формата: Да
Параметр ReFrames формата: 8 кадров
Идентификатор кодека: V_MPEG4/ISO/AVC
Продолжительность: 2 ч. 0 м.
Битрейт: 2210 Кбит/сек
Ширина: 1024 пикс.
Высота: 424 пикс.
Соотношение сторон: 2,40:1
Соотношение сторон в оригинале: 2,40:1
Режим частоты кадров: Переменный
Частота кадров: 23,976 кадр/сек
Цветовое пространство: YUV
Подвыборка цветности: 4:2:0
Битовая глубина: 8 бит
Тип развёртки: Прогрессивная
Бит/(Пиксели*Кадры): 0.212
Размер потока: 1,80 Гбайт (83%)
Библиотека кодирования: x264 core 116 r2019M 9cc407d
Настройки программы: cabac=1 / ref=9 / deblock=1:-2:-2 / analyse=0x3:0x133 / me=hex / subme=9 / psy=1 / psy_rd=1.00:0.20 / mixed_ref=1 / me_range=16 / chroma_me=1 / trellis=1 / 8x8dct=1 / cqm=0 / deadzone=21,11 / fast_pskip=1 / chroma_qp_offset=-3 / threads=6 / sliced_threads=0 / nr=0 / decimate=1 / interlaced=0 / bluray_compat=0 / constrained_intra=0 / bframes=9 / b_pyramid=1 / b_adapt=2 / b_bias=0 / direct=3 / weightb=1 / open_gop=0 / weightp=2 / keyint=230 / keyint_min=23 / scenecut=40 / intra_refresh=0 / rc_lookahead=40 / rc=abr / mbtree=1 / bitrate=2210 / ratetol=1.0 / qcomp=0.60 / qpmin=0 / qpmax=69 / qpstep=4 / ip_ratio=1.40 / aq=1:1.00
Язык: English

Аудио:
Идентификатор: 2
Формат: AC-3
Формат/Информация: Audio Coding 3
Расширение режима: CM (complete main)
Идентификатор кодека: A_AC3
Продолжительность: 2 ч. 0 м.
Вид битрейта: Постоянный
Битрейт: 384 Кбит/сек
Каналы: 6 каналов
Расположение каналов: Front: L C R, Side: L R, LFE
Частота: 48,0 КГц
Битовая глубина: 16 бит
Метод сжатия: С потерями
Размер потока: 331 Мбайт (15%)
Язык: Russian

[b]







[b]Поделиться:




реклама партнёра


Вернуться к началу
 Профиль Отправить личное сообщение  
 
   Похожие торренты   Автор   Торрент   Размер 
В этой теме нет новых непрочитанных сообщений. Белый плен / Eight Below [Драма, приключения, семейный, 2006] WEB-DLRip-AVC, Dub

salma3

9 | 4

2.84 ГБ

В этой теме нет новых непрочитанных сообщений. Белый плен / Eight Below [драма, приключения, семейный, 2006] BDRip 1080p, Dub

salma3

83 | 18

7.95 ГБ

В этой теме нет новых непрочитанных сообщений. Белый плен / Eight Below [драма, приключения, семейный, 2006] WEB-DL 1080p, Dub [Open Matte]

salma3

0 | 0

11.03 ГБ

В этой теме нет новых непрочитанных сообщений. Белый плен / Eight Below [Драма, приключения, семейный, 2006] WEB-DLRip-AVC, Dub [Open Matte]

salma3

32 | 3

1.45 ГБ

В этой теме нет новых непрочитанных сообщений. Белый плен / Eight Below [Мелодрама, Драма, Приключения, 2006] HDTVRip 720p, Dub [Open Matte]

salma3

75 | 20

4.37 ГБ

В этой теме нет новых непрочитанных сообщений. Чем дальше в лес... / Into the Woods (Роб Маршалл) [Фэнтези, комедия, семейный, мюзикл, 2014] HDRip, Dub [iTunes]

Dracon

341 | 12

1.37 ГБ

В этой теме нет новых непрочитанных сообщений. Чем дальше в лес / Into the Woods (Роб Маршалл) [Фэнтези, комедия, семейный, мюзикл, 2014] HDRip-AVC, Dub+Sub [iTunes]

Dracon

315 | 25

2.17 ГБ


Начать новую тему Ответить на тему  [ 1 сообщение ] 




Для Мосгорсуда, Роскомнадзора и рекламодателей:: mosgorsud-torrent[собачка]yandex.ru