Торрент файл
скачать торрент магнет ссылка Добавлен: 15 янв 2012, 00:17
Размер: 2.15 ГБ
Сидеров: 64
Личеров: 7
Автор

СообщениеДобавлено: 15 янв 2012, 00:17 

Не в сети
Супермодератор
Аватара пользователя
Дата регистрации:
11 апр 2010, 18:10
Спасибо: 5802 / 7
Сообщения: 56779
Бесконечная история / Die unendliche Geschichte

Перевод: Профессиональный (многоголосый, закадровый), cубтитры: Русские, Английские (полные, отключаемые)
Формат: HDRip, MKV, H.264, AC3
Страна: США, Германия (ФРГ)
Режиссер: Вольфганг Петерсен
Жанр: семейный, фэнтези, драма, приключения
Продолжительность: 01:33:56
Год выпуска: 1984
В ролях: Баррет Оливер, Джералд МакРэйни, Драм Гаррет, Дэррил Кукси, Николас Гилберт, Томас Хилл, Дип Рой, Тило Прюкнер, Моузес Ганн, Ноа Хэтауэй
Описание: Убегая от школьных хулиганов, 10-летний Бастиан спрятался в старой книжной лавке, где нашел таинственную книгу, изукрашенную орнаментом. Открыв ее, Бастиан попал в призрачный фантастический мир бегающих улиток, летающих собак, бескрылых Драконов Удачи, проказливых эльфов и ходячей каменоломни по имени Камнекус.
Но волшебной стране Фантазии и ее правительнице, Девочке-Императрице, угрожает страшная напасть под названием Ничто, порожденная «несбывшимися мечтами». Спасти Фантазию могут лишь юный воин Атрейю и сила воображения необыкновенного мечтателя Бастиана…


Видео: 1280x536 (2,40:1), 23,976 fps, MPEG4 AVC (х264), High@L4.1 ~2900 kbps avg, 0.176 bit/pixel
Аудио: 48 kHz,AC-3, 6 ch, ~384.00 kbps avg


Автор РИПа:
Общее
Уникальный идентификатор : 248521937842889582278520956397957699852 (0xBAF7958DAA12DFBBAB6CE0CAC314590C)
Полное имя : f:\Downloads\die_unendliche_geschichte_[tfile.ru].mkv
Формат : Matroska
Версия формата : Version 2
Размер файла : 2,15 Гбайт
Продолжительность : 1 ч. 33 м.
Общий поток : 3275 Кбит/сек
Дата кодирования : UTC 2012-01-10 20:05:59
Программа кодирования : mkvmerge v4.6.0 ('Still Crazy After All These Years') сборка от Mar 10 2011 02:50:32
Библиотека кодирования : libebml v1.2.0 + libmatroska v1.1.0

Видео
Идентификатор : 1
Формат : AVC
Формат/Информация : Advanced Video Codec
Профиль формата : High@L4.1
Параметр CABAC формата : Да
Параметр ReFrames формата : 3 кадра
Режим смешивания : Header stripping
Идентификатор кодека : V_MPEG4/ISO/AVC
Продолжительность : 1 ч. 33 м.
Битрейт : 2900 Кбит/сек
Ширина : 1280 пикселей
Высота : 536 пикселей
Соотношение сторон : 2,40:1
Соотношение сторон в оригинале : 2,40:1
Режим частоты кадров : Переменный
Частота кадров : 23,976 кадра/сек
Цветовое пространство : YUV
Субдискретизация насыщенности : 4:2:0
Битовая глубина : 8 бит
Тип развёртки : Прогрессивная
Бит/(Пиксели*Кадры) : 0.176
Размер потока : 1,85 Гбайт (86%)
Библиотека кодирования : x264 core 116 r2019M 9cc407d
Настройки программы : cabac=1 / ref=3 / deblock=1:-1:-1 / analyse=0x3:0x133 / me=hex / subme=7 / psy=1 / psy_rd=1.00:0.15 / mixed_ref=1 / me_range=16 / chroma_me=1 / trellis=1 / 8x8dct=1 / cqm=0 / deadzone=21,11 / fast_pskip=1 / chroma_qp_offset=-3 / threads=8 / sliced_threads=0 / nr=0 / decimate=1 / interlaced=0 / bluray_compat=0 / constrained_intra=0 / bframes=3 / b_pyramid=1 / b_adapt=2 / b_bias=0 / direct=3 / weightb=1 / open_gop=0 / weightp=2 / keyint=230 / keyint_min=23 / scenecut=40 / intra_refresh=0 / rc_lookahead=40 / rc=abr / mbtree=1 / bitrate=2900 / ratetol=1.0 / qcomp=0.60 / qpmin=10 / qpmax=51 / qpstep=4 / vbv_maxrate=31250 / vbv_bufsize=31250 / nal_hrd=none / ip_ratio=1.40 / aq=1:1.00
Язык : English
Default : Да
Forced : Нет

Аудио
Идентификатор : 2
Формат : AC-3
Формат/Информация : Audio Coding 3
Расширение режима : CM (complete main)
Режим смешивания : Header stripping
Идентификатор кодека : A_AC3
Продолжительность : 1 ч. 33 м.
Вид битрейта : Постоянный
Битрейт : 384 Кбит/сек
Каналы : 6 каналов
Расположение каналов : Front: L C R, Side: L R, LFE
Частота : 48,0 КГц
Битовая глубина : 16 бит
Метод сжатия : С потерями
Размер потока : 258 Мбайт (12%)
Заголовок : MVO
Язык : Russian
Default : Да
Forced : Нет

Текст #1
Идентификатор : 3
Формат : UTF-8
Идентификатор кодека : S_TEXT/UTF8
Идентификатор кодека/Информация : UTF-8 Plain Text
Язык : Russian
Default : Да
Forced : Нет

Текст #2
Идентификатор : 4
Формат : UTF-8
Идентификатор кодека : S_TEXT/UTF8
Идентификатор кодека/Информация : UTF-8 Plain Text
Язык : English
Default : Нет
Forced : Нет

Меню
00:00:00.000 : en:00:00:00.000
00:02:06.543 : en:00:02:06.543
00:10:36.803 : en:00:10:36.803
00:12:30.583 : en:00:12:30.583
00:19:10.232 : en:00:19:10.232
00:23:00.713 : en:00:23:00.713
00:27:39.658 : en:00:27:39.658
00:30:27.951 : en:00:30:27.951
00:36:20.970 : en:00:36:20.970
00:40:14.162 : en:00:40:14.162
00:47:17.084 : en:00:47:17.084
00:50:26.315 : en:00:50:26.315
00:56:48.822 : en:00:56:48.822
00:59:52.589 : en:00:59:52.589
01:07:04.354 : en:01:07:04.354
01:10:27.557 : en:01:10:27.557
01:16:01.223 : en:01:16:01.223
01:18:53.187 : en:01:18:53.187
01:23:55.239 : en:01:23:55.239
01:31:08.797 : en:01:31:08.797
















Поделиться:




реклама партнёра


Вернуться к началу
 Профиль Отправить личное сообщение  
 
   Похожие торренты   Автор   Торрент   Размер 
В этой теме нет новых непрочитанных сообщений. Недооформлен Самолет президента / Air Force One (Вольфганг Петерсен) [1997, боевик, триллер, драма, приключения, HDRip-AVC] DUB+MVO+AVO / Фильмы HDRip Данный торрент является блокированным, причина: недооформленный торрент

Kochesov

11 | 1

3.57 ГБ

В этой теме нет новых непрочитанных сообщений. Бесконечная история 2. Новая глава / The Neverending Story II. The Next Chapter [Фэнтези, Приключения, 1990] HDRip 1080p, Dub

salma3

45 | 4

3.36 ГБ

В этой теме нет новых непрочитанных сообщений. Баунти / The Bounty [Приключения, история, драма, 1984] HDTVRip, Mvo

salma3

102 | 8

1.45 ГБ

В этой теме нет новых непрочитанных сообщений. Конан-разрушитель / Conan the Destroyer [фэнтези, боевик, приключения, 1984] HDRip, Mvo

salma3

98 | 7

1.45 ГБ

В этой теме нет новых непрочитанных сообщений. Баунти / The Bounty [Боевик, драма, приключения, история, 1984] BDRip 720p, Mvo+Sub

salma3

90 | 11

5.76 ГБ

В этой теме нет новых непрочитанных сообщений. Мальчик в зеркале / O Menino no Espelho / The Boy in the Mirror [фэнтези, драма, приключения, семейный, 2014] HDRip, avo

Dracon

369 | 24

1.37 ГБ

В этой теме нет новых непрочитанных сообщений. Семейка вампиров / Die Vampirschwestern [фэнтези, драма, комедия, приключения, семейный, 2012] HDRip, Dub [Лицензия]

Dracon

211 | 8

1.46 ГБ


Начать новую тему Ответить на тему  [ 1 сообщение ] 




Для Мосгорсуда, Роскомнадзора и рекламодателей:: mosgorsud-torrent[собачка]yandex.ru