Торрент файл
скачать торрент магнет ссылка Добавлен: 15 янв 2012, 00:07
Размер: 2.18 ГБ
Сидеров: 13
Личеров: 3
Автор

СообщениеДобавлено: 15 янв 2012, 00:07 

Не в сети
Супермодератор
Аватара пользователя
Дата регистрации:
11 апр 2010, 18:10
Спасибо: 5801 / 7
Сообщения: 56779
600 кг золота / 600 kilos d'or pur

Перевод: Профессиональный (многоголосый, закадровый)
Субтитры: Русские, французские
Формат: HDRip-AVC, MKV, H264, AC3
Страна: Франция
Режиссер: Эрик Беснард / Eric Besnard
Жанр: Драма, криминал, приключения
Продолжительность: 01:39:24
Год выпуска: 2010

В ролях: Кловис Корнийяк, Одри Дана, Патрик Шенэ, Клаудио Сантамария, Бруно Соло, Эрик Эбони, Жерар Клейн, Мехди Неббу, Юбер Сен-Макари, Жан-Пьер Мартен ...

Описание: Несколько отчаянных искателей приключений объединяется, чтобы купить золотодобывающую шахту в Гайане. Когда рискованная сделка срывается, героям приходится спешно скрываться на вертолете, который терпит крушение в непролазных джунглях. С собой у путешественников 600 килограммов золота. Вскоре эта ноша становится слишком тяжелой… Вскоре инстинкт выживания берет верх над жаждой богатства, но никто не хочет оставаться в дураках. И вот уже золотая лихорадка превращает бывших товарищей в смертных врагов…

|

Видео: 1024x432 (2.35:1), 24 fps, x264 (High@L4.1) ~2301 kbps avg, 0.22 bit/pixel
Аудио #1: Русский: 48 kHz, AC3, 6 ch, 384.00 kbps [Профессиональный (многоголосый, закадровый) Лицензия]
Аудио #2: Французский: 48 kHz, AC3, 6 ch, 384.00 kbps [Оригинал]

General
Complete name : 600_kg_zolota_2010_P_HDRip-AVC.mkv
Format : Matroska
File size : 2.18 GiB
Duration : 1h 39mn
Overall bit rate : 3 133 Kbps
Movie name : avproh
Encoded date : UTC 2011-03-30 05:04:29
Writing application : mkvmerge v4.1.1 ('Bouncin' Back') сборка от Jul 3 2010 22:54:08
Writing library : libebml v1.0.0 + libmatroska v1.0.0
Video
ID : 1
Format : AVC
Format/Info : Advanced Video Codec
Format profile : High@L4.1
Format settings, CABAC : Yes
Format settings, ReFrames : 11 frames
Codec ID : V_MPEG4/ISO/AVC
Duration : 1h 39mn
Bit rate : 2 301 Kbps
Width : 1 024 pixels
Height : 432 pixels
Display aspect ratio : 2.35:1
Frame rate : 24.000 fps
Color space : YUV
Chroma subsampling : 4:2:0
Bit depth : 8 bits
Scan type : Progressive
Bits/(Pixel*Frame) : 0.217
Stream size : 1.55 GiB (71%)
Writing library : x264 core 114 r1913 5fd3dce
Encoding settings : cabac=1 / ref=11 / deblock=1:-2:-1 / analyse=0x3:0x113 / me=umh / subme=9 / psy=1 / psy_rd=1.00:0.10 / mixed_ref=1 / me_range=32 / chroma_me=1 / trellis=2 / 8x8dct=1 / cqm=0 / deadzone=21,11 / fast_pskip=1 / chroma_qp_offset=-3 / threads=9 / sliced_threads=0 / nr=0 / decimate=1 / interlaced=0 / constrained_intra=0 / bframes=10 / b_pyramid=2 / b_adapt=2 / b_bias=0 / direct=3 / weightb=1 / open_gop=0 / weightp=0 / keyint=250 / keyint_min=23 / scenecut=40 / intra_refresh=0 / rc_lookahead=80 / rc=2pass / mbtree=1 / bitrate=2301 / ratetol=1.0 / qcomp=0.60 / qpmin=0 / qpmax=69 / qpstep=4 / cplxblur=20.0 / qblur=0.5 / ip_ratio=1.40 / aq=2:0.90
Language : English
Audio #1
ID : 2
Format : AC-3
Format/Info : Audio Coding 3
Mode extension : CM (complete main)
Codec ID : A_AC3
Duration : 1h 39mn
Bit rate mode : Constant
Bit rate : 384 Kbps
Channel(s) : 6 channels
Channel positions : Front: L C R, Side: L R, LFE
Sampling rate : 48.0 KHz
Bit depth : 16 bits
Compression mode : Lossy
Stream size : 273 MiB (12%)
Language : Russian
Audio #2
ID : 3
Format : AC-3
Format/Info : Audio Coding 3
Mode extension : CM (complete main)
Codec ID : A_AC3
Duration : 1h 39mn
Bit rate mode : Constant
Bit rate : 448 Kbps
Channel(s) : 6 channels
Channel positions : Front: L C R, Side: L R, LFE
Sampling rate : 48.0 KHz
Bit depth : 16 bits
Compression mode : Lossy
Stream size : 319 MiB (14%)
Language : English
Text #1
ID : 4
Format : UTF-8
Codec ID : S_TEXT/UTF8
Codec ID/Info : UTF-8 Plain Text
Language : Russian
Text #2
ID : 5
Format : UTF-8
Codec ID : S_TEXT/UTF8
Codec ID/Info : UTF-8 Plain Text
Language : French





Поделиться:




реклама партнёра


Вернуться к началу
 Профиль Отправить личное сообщение  
 
   Похожие торренты   Автор   Торрент   Размер 
В этой теме нет новых непрочитанных сообщений. Тройной агент / Triple agent (Эрик Ромер / Eric Rohmer) [2004г., драма, DVDRip-AVC] MVO

Alfredovich

5 | 6

2.18 ГБ

В этой теме нет новых непрочитанных сообщений. Друг моей подруги / L'ami de mon amie (Эрик Ромер / Eric Rohmer) [1987г., Франция, драма, мелодрама, комедия, BDRip] MVO

Alfredovich

3 | 0

1.45 ГБ

В этой теме нет новых непрочитанных сообщений. 7 убийц / 7 Assassins / Guang Hui Sui Yue (Эрик Цан, Хан Ень Ень) [2013, драма, боевик, приключения, HDRip] avo

Nickolas3435

30 | 2

1.46 ГБ

В этой теме нет новых непрочитанных сообщений. Как жениться и остаться холостым / Prete-moi ta main (Эрик Лартиго / Eric Lartigau) [2006г., Франция, мелодрама, комедия, НDRip] DUB

Alfredovich

1 | 3

1.36 ГБ

В этой теме нет новых непрочитанных сообщений. Пересекающиеся линии / Пересекая черту / Crossing Lines [S02] (Дэниэл Персивал, Эрик Валетт, Энди Уилсон) [2014, Боевик, драма, криминал, HDRip | Sony Turbo]

Nickolas3435

201 | 73

9.36 ГБ

В этой теме нет новых непрочитанных сообщений. Пингвины Мадагаскара / The Penguins of Madagascar (Эрик Дарнелл, Саймон Дж. Смит) [мультфильм, комедия, приключения, семейный, 2014] HDRip, Dub [iTunes]

Dracon

206 | 7

1.37 ГБ

В этой теме нет новых непрочитанных сообщений. Exhibitions: Paris / Эксгибиционисты: Париж (Eric Martin / France Interdite / Marc Dorcel) (Lola, Natacha, Eric Martin, Alix) [2014 г., Anal, Oral, Big Boobs, Double Penetration, WEB-DL 576p]

friizze

7 | 4

1.2 ГБ


Начать новую тему Ответить на тему  [ 1 сообщение ] 




Для Мосгорсуда, Роскомнадзора и рекламодателей:: mosgorsud-torrent[собачка]yandex.ru