Торрент файл
скачать торрент магнет ссылка Добавлен: 14 янв 2012, 23:57
Размер: 2.88 ГБ
Сидеров: 48
Личеров: 3
Автор

СообщениеДобавлено: 14 янв 2012, 23:57 

Не в сети
Супермодератор
Аватара пользователя
Дата регистрации:
11 апр 2010, 18:10
Спасибо: 5801 / 7
Сообщения: 56779
Бурлеск / Burlesque

Перевод: Профессиональный (полное дублирование)
Субтитры: Русские, английские
Формат: HDRip-AVC, MKV, H.264, AC3
Страна: США
Режиссер: Стив Энтин / Steve Antin
Жанр: мюзикл, драма, мелодрама
Продолжительность: 01:58:58
Год выпуска: 2010

В ролях: Шер, Кристина Агилера, Эрик Дэйн, Кэм Жиганде, Джулианна Хаф, Алан Камминг, Питер Галлахер, Кристен Белл, Стенли Туччи, Дианна Агрон

Описание: Али — молодая амбициозная девушка из маленького городка с чудесным голосом, совсем недавно потеряла своих родителей. Теперь никому не нужная, она отправляется в большой город Лос-Анджелес, где устраивается на работу у Тесс, хозяйки ночного клуба «Бурлеск». За короткое время она находит друзей, поклонников и любовь всей своей жизни. Но может ли сказка длиться вечно? Ведь немало людей завидует этой прекрасной танцовщице…



Видео: 1184x496 (2.35:1); 23.976 fps; MPEG-4 AVC; 2632 kbps; 0.187 bit/pixel
Аудио 1:Русский: 48 kHz; AC3 Dolby Digital; 3/2 (L,C,R,l,r) + LFE ch; 384 kbps avg [Профессиональный (полное дублирование)]
Аудио 1:Английский: 48 kHz; AC3 Dolby Digital; 3/2 (L,C,R,l,r) + LFE ch; 448 kbps avg [Оригинал]

Релиз группы | by capral555



Общее
Уникальный идентификатор: 185955067662377592835396655944483726789 (0x8BE5A4B01AF1348FA01D36A7732BE5C5)
Полное имя: E:\MOVIES\Rips\Burlesque.2010.BDRip-AVC.MKV.x264.DHT-Movies.mkv
Формат: Matroska
Размер файла: 2,88 Гбайт
Продолжительность: 1 ч. 58 м.
Общий поток: 3465 Кбит/сек
Дата кодирования: UTC 2011-04-14 09:27:39
Программа кодирования: mkvmerge v4.6.0 ('Still Crazy After All These Years') сборка от Mar 10 2011 02:50:32
Библиотека кодирования: libebml v1.2.0 + libmatroska v1.1.0

Видео
Идентификатор: 1
Формат: AVC
Формат/Информация: Advanced Video Codec
Профиль формата: High@L4.1
Параметр CABAC формата: Да
Параметр ReFrames формата: 10 кадры
Идентификатор кодека: V_MPEG4/ISO/AVC
Продолжительность: 1 ч. 58 м.
Битрейт: 2632 Кбит/сек
Ширина: 1184 пикс.
Высота: 496 пикс.
Соотношение сторон: 2,35:1
Частота кадров: 23,976 кадр/сек
Цветовое пространство: YUV
Подвыборка цветности: 4:2:0
Битовая глубина: 8 бит
Тип развёртки: Прогрессивная
Бит/(Пиксели*Кадры): 0.187
Размер потока: 2,13 Гбайт (74%)
Заголовок: 1184x496 (2.35:1); 23.976 fps; 2632 kbps; 0.187 bit/pixel
Библиотека кодирования: x264 core 114 r1913 5fd3dce
Настройки программы: cabac=1 / ref=10 / deblock=1:-2:-1 / analyse=0x3:0x113 / me=umh / subme=10 / psy=1 / psy_rd=1.08:0.10 / mixed_ref=1 / me_range=32 / chroma_me=1 / trellis=2 / 8x8dct=1 / cqm=0 / deadzone=21,11 / fast_pskip=1 / chroma_qp_offset=-5 / threads=6 / sliced_threads=0 / nr=0 / decimate=1 / interlaced=0 / constrained_intra=0 / bframes=9 / b_pyramid=2 / b_adapt=2 / b_bias=0 / direct=2 / weightb=1 / open_gop=0 / weightp=2 / keyint=250 / keyint_min=23 / scenecut=40 / intra_refresh=0 / rc_lookahead=50 / rc=2pass / mbtree=1 / bitrate=2632 / ratetol=1.0 / qcomp=0.65 / qpmin=0 / qpmax=69 / qpstep=4 / cplxblur=20.0 / qblur=0.5 / ip_ratio=1.40 / aq=2:1.00
Язык: English

Аудио #1
Идентификатор: 2
Формат: AC-3
Формат/Информация: Audio Coding 3
Расширение режима: CM (complete main)
Идентификатор кодека: A_AC3
Продолжительность: 1 ч. 58 м.
Вид битрейта: Постоянный
Битрейт: 384 Кбит/сек
Канал(ы): 6 канала(ов)
Расположение каналов: Front: L C R, Side: L R, LFE
Частота: 48,0 КГц
Битовая глубина: 16 бит
Метод сжатия: С потерями
Размер потока: 327 Мбайт (11%)
Заголовок: 48 kHz; AC3; 5.1 ch; 384 kbps - Dub
Язык: Russian

Аудио #2
Идентификатор: 3
Формат: AC-3
Формат/Информация: Audio Coding 3
Расширение режима: CM (complete main)
Идентификатор кодека: A_AC3
Продолжительность: 1 ч. 58 м.
Вид битрейта: Постоянный
Битрейт: 448 Кбит/сек
Канал(ы): 6 канала(ов)
Расположение каналов: Front: L C R, Side: L R, LFE
Частота: 48,0 КГц
Битовая глубина: 16 бит
Метод сжатия: С потерями
Размер потока: 381 Мбайт (13%)
Заголовок: 48 kHz; AC3; 5.1 ch; 448 kbps - Original
Язык: English

Текст #1
Идентификатор: 4
Формат: UTF-8
Идентификатор кодека: S_TEXT/UTF8
Идентификатор кодека/Информация: UTF-8 Plain Text
Заголовок: Русские (notabenoid)
Язык: Russian

Текст #2
Идентификатор: 5
Формат: UTF-8
Идентификатор кодека: S_TEXT/UTF8
Идентификатор кодека/Информация: UTF-8 Plain Text
Заголовок: Русские (Dais)
Язык: Russian

Текст #3
Идентификатор: 6
Формат: UTF-8
Идентификатор кодека: S_TEXT/UTF8
Идентификатор кодека/Информация: UTF-8 Plain Text
Заголовок: Английские
Язык: English
damsel_in_distress

If you want a little extra…(С)

Еще.. еще! Хочется воскликнуть- браво! У Стива Энтина получилось создать удивительно красочный, легкий и веселый мюзикл.

Очень гармонично развивающаяся история золушки-провинциалки (Кристины Агилеры) превращающейся в прекрасную диву. Игра Кристины очень и очень неплоха. На протяжении фильма её героиня трансформируется, постоянно меняется. Шэр великолепна как внешне, так и вокально. Стэнли Туччи, в каком бы фильме он не появился, приносит в кино свою изюминку и очарование. Некоторым минусом мне показалась игра всех остальных актеров — уж очень шаблонно выглядят созданные ими образы. Кэм жиганде- добрый малый, Кристен Бэлл — профессиональная стерва, Эрик Дэйн- успешный ловелас- всё это сыграно, но довольно однобоко. Впрочем, быть может жанр мюзикла это оправдывает.

В целом же, на протяжении всего фильма от экрана не хочется отрывать взгляд. Атмосфера клуба «Бурлеск» переносит нас на век назад, когда в моде были кабаре. Изысканная соблазнительность и утонченная сексуальность витают в воздухе. Музыка, звучащая в фильме пополнит плейлисты многих меломанов. Потрясающие голоса Шэр и Агилеры гипнотизируют и заставляют восхищаться, а сам сюжет является фоном для получения удовольствия от музыкально-танцевального шоу. Впрочем, и фон это весьма не плох- все проблемы, с которыми сталкиваются герои актуальны и очень жизненны. Но в кино мы и не успеваем как следует распереживаться, как уже герои радуют нас ловко придуманными решениями своих проблем. Игривость сюжета гармонирует с бурлеском музыкальных и танцевальных сцен, и в итоге получается замечательный фильм.

8 из 10
* Для Шер это первый фильм после семилетнего перерыва.

* В съёмках использовано примерно 80 000 изделий и отдельных камней Сваровски общей массой примерно 1,3 тонны.

* За роль Никки, которую в конечном итоге получила Кристен Белл, боролись две актрисы Джессика Бил и Линдсей Лохан.

* Роберт Паттинсон, Келлан Латс и Тэйлор Лотнер боролись за роль Джека, которая в конечном итоге досталось другой звезде «Сумерек» Кэму Жиганде.












Поделиться:




реклама партнёра


Вернуться к началу
 Профиль Отправить личное сообщение  
 
   Похожие торренты   Автор   Торрент   Размер 
В этой теме нет новых непрочитанных сообщений. Стив Джобс / Steve Jobs (Дэнни Бойл) [драма, биография, 2015] HDRip, dub [Чистый звук]

Dracon

4644 | 236

1.45 ГБ

В этой теме нет новых непрочитанных сообщений. Стив Джобс / Steve Jobs [драма, биография, 2015] BDRip 720p, dub [Чистый звук]

Dracon

1122 | 70

5.63 ГБ

В этой теме нет новых непрочитанных сообщений. Влюбленные / Mohabbatein [мюзикл, драма, мелодрама, 2000] HDRip, Mvo

salma3

21 | 5

2.27 ГБ

В этой теме нет новых непрочитанных сообщений. Жизнь во имя любви 2 / Aashiqui 2 [мюзикл, драма, мелодрама, 2013] HDRip, Mvo+Sub

salma3

170 | 22

2.19 ГБ

В этой теме нет новых непрочитанных сообщений. Пурпурный дождь / Purple Rain [мюзикл, драма, мелодрама, музыка, 1984] HDRip, Dub

salma3

22 | 2

1.46 ГБ

В этой теме нет новых непрочитанных сообщений. Ослиная шкура / Peau d Ane [мюзикл, фэнтези, драма, мелодрама, семейный, 1970] HDRip, Mvo

salma3

2 | 5

1.46 ГБ

В этой теме нет новых непрочитанных сообщений. Свадьба моей любимой / Mere Yaar Ki Shaadi Hai [Мюзикл, драма, мелодрама, комедия, 2002] HDRip, Mvo

salma3

22 | 3

1.46 ГБ


Начать новую тему Ответить на тему  [ 1 сообщение ] 




Для Мосгорсуда, Роскомнадзора и рекламодателей:: mosgorsud-torrent[собачка]yandex.ru