Торрент файл
скачать торрент магнет ссылка Добавлен: 14 янв 2012, 23:53
Размер: 1.46 ГБ
Сидеров: 5
Личеров: 6
Автор

СообщениеДобавлено: 14 янв 2012, 23:53 

Не в сети
Супермодератор
Аватара пользователя
Дата регистрации:
11 апр 2010, 18:10
Спасибо: 5960 / 7
Сообщения: 56765
Большая маленькая Я / Lage de raison

Перевод: Профессиональный (многоголосый, закадровый), cубтитры: Русские, английские
Формат: HDRip-AVC, MKV, H.264, AC3
Страна: Франция, Бельгия
Режиссер: Ян Самюэль
Жанр: мелодрама, комедия
Продолжительность: 01:29:30
Год выпуска: 2010
В ролях: Софи Марсо, Мартон Чокаш, Мишель Дюшоссуа, Джонатан Цассаи, Эммануэль Грёнвольд, Джульетт Чаппи, Тьерри Ханчиссе
Описание: Когда-то успешная бизнес-леди Марго Флор была маленькой девочкой. Кем только ей не хотелось стать в будущем: от исследователя морских глубин до покорителя иных планет. Но судьба распорядилась иначе: теперь Марго заключает сделки на миллионы евро, ее жизнь расписана по минутам на ближайшие полгода и даже со своим любимым, англичанином Малькольмом, она встречается в спокойной обстановке не чаще раза в месяц.

И вот однажды пожилой нотариус Фернан Мериньяк приносит ей письмо, начинающееся словами: «Дорогая Я, мне сейчас семь лет и я пишу это письмо, чтобы ты не забыла обещания, которые дала себе, и помнила, кем хочешь быть…»




Видео: 1024 x 432 (2.370), 23.976 fps, AVC, High@L4.1, х264, ~ 1 896 Kbps Kbps, 0.179 bit/pixel
Аудио: 48 kHz, AC3 Dolby Digital, 3/2 (L,C,R,l,r) + LFE ch, ~448 kbps

General
Unique ID: 186025435928783701766160006833950211038 (0x8BF3321C7E9F4E1DBBB55BFCCB94BBDE)
Complete name: E:\РЕЛИЗЫ\Все релизы 13\bolshaja_malenkaja_ja_[tfile.ru].mkv
Format: Matroska
File size: 1.46 GiB
Duration: 1h 29mn
Overall bit rate: 2 341 Kbps
Movie name: NovaLan (Vladislav71)
Encoded date: UTC 2011-04-20 20:52:06
Writing application: mkvmerge v4.0.0 ('The Stars were mine') сборка от Jun6 2010 16:18:42
Writing library: libebml v1.0.0 + libmatroska v1.0.0

Video
ID: 1
Format: AVC
Format/Info: Advanced Video Codec
Format profile: High@L4.1
Format settings, CABAC: Yes
Format settings, ReFrames: 8 frames
Codec ID: V_MPEG4/ISO/AVC
Duration: 1h 29mn
Bit rate: 1 896 Kbps
Width: 1 024 pixels
Height: 432 pixels
Display aspect ratio: 2.35:1
Frame rate: 23.976 fps
Color space: YUV
Chroma subsampling: 4:2:0
Bit depth: 8 bits
Scan type: Progressive
Bits/(Pixel*Frame): 0.179
Stream size: 1.15 GiB (79%)
Writing library: x264 core 92 r1510 33d382a
Encoding settings: cabac=1 / ref=8 / deblock=1:-1:-1 / analyse=0x3:0x133 / me=umh / subme=7 / psy=1 / psy_rd=1.00:0.10 / mixed_ref=1 / me_range=16 / chroma_me=1 / trellis=2 / 8x8dct=1 / cqm=0 / deadzone=21,11 / fast_pskip=0 / chroma_qp_offset=-3 / threads=3 / sliced_threads=0 / nr=0 / decimate=1 / interlaced=0 / constrained_intra=0 / bframes=3 / b_pyramid=2 / b_adapt=2 / b_bias=0 / direct=3 / wpredb=1 / wpredp=2 / keyint=250 / keyint_min=25 / scenecut=40 / intra_refresh=0 / rc_lookahead=50 / rc=2pass / mbtree=1 / bitrate=1896 / ratetol=1.0 / qcomp=0.60 / qpmin=10 / qpmax=51 / qpstep=4 / cplxblur=20.0 / qblur=0.5 / ip_ratio=1.40 / aq=1:1.00

Audio
ID: 2
Format: AC-3
Format/Info: Audio Coding 3
Mode extension: CM (complete main)
Codec ID: A_AC3
Duration: 1h 29mn
Bit rate mode: Constant
Bit rate: 448 Kbps
Channel(s): 6 channels
Channel positions: Front: L C R, Side: L R, LFE
Sampling rate: 48.0 KHz
Bit depth: 16 bits
Compression mode: Lossy
Delay relative to video: 3s 0ms
Stream size: 287 MiB (19%)
Language: Russian

Text #1
ID: 3
Format: UTF-8
Codec ID: S_TEXT/UTF8
Codec ID/Info: UTF-8 Plain Text
Language: Russian

Text #2
ID: 4
Format: UTF-8
Codec ID: S_TEXT/UTF8
Codec ID/Info: UTF-8 Plain Text
Language: English
















Поделиться:




реклама партнёра


Вернуться к началу
 Профиль Отправить личное сообщение  
 
   Похожие торренты   Автор   Торрент   Размер 
В этой теме нет новых непрочитанных сообщений. Большая маленькая Я / L'age de raison [мелодрама, комедия. 2010] BDRip 1080p, Mvo

salma3

33 | 30

6.83 ГБ

В этой теме нет новых непрочитанных сообщений. Довод самого слабого / La raison du plus faible [триллер, драма, кримина, 2006] DVDRip, Dvo

salma3

69 | 3

1.46 ГБ

В этой теме нет новых непрочитанных сообщений. Это всё она / She's All That [Мелодрама, комедия, 1999] HDRip, Dvo

salma3

24 | 5

745.08 МБ

В этой теме нет новых непрочитанных сообщений. Ки и Ка / Он и она / Ki & Ka [Мелодрама, комедия, 2016] HDRip, Mvo

salma3

331 | 31

1.45 ГБ

В этой теме нет новых непрочитанных сообщений. 27 свадеб / 27 Dresses [Мелодрама, комедия, 2008] HDRip-AVC, Dub

salma3

75 | 10

745.94 МБ

В этой теме нет новых непрочитанных сообщений. Он и Она / Mr & Mme Adelman [Комедия, мелодрама, 2017] HDRip, Dub [iTunes]

salma3

73 | 3

748.94 МБ

В этой теме нет новых непрочитанных сообщений. Он и Она / Mr & Mme Adelman [Комедия, мелодрама, 2017] HDRip, Dub [iTunes]

salma3

2108 | 201

1.46 ГБ


Начать новую тему Ответить на тему  [ 1 сообщение ] 




Для Мосгорсуда, Роскомнадзора и рекламодателей:: mosgorsud-torrent[собачка]yandex.ru