Торрент файл
скачать торрент магнет ссылка Добавлен: 14 янв 2012, 23:46
Размер: 1.45 ГБ
Сидеров: 10
Личеров: 4
Автор

СообщениеДобавлено: 14 янв 2012, 23:46 

Не в сети
Супермодератор
Аватара пользователя
Дата регистрации:
11 апр 2010, 18:10
Спасибо: 5801 / 7
Сообщения: 56779
Прошлой ночью в Нью-Йорке / Last Night


Перевод: Профессиональный (полное дублирование), cубтитры: отсутствуют
Формат: HDRip-AVC, AVI, XviD, AC3
Страна: США, Франция
Режиссер: Мэсси Таджедин
Жанр: драма, мелодрама
Продолжительность: 01:32:30
Год выпуска: 2010

В ролях: Кира Найтли, Сэм Уортингтон, Ева Мендес, Гийом Кане, Энсон Маунт, Гриффин Данн, Стефани Романов, Скотт Эдсит, Дэниэл Эрик Голд, Джастин Котсонас

Описание: Молодожены Майкл и Джоанна — красивы, успешны, живут в огромной квартире центра Манхеттена, но всего одна ночь заставит их усомниться друг в друге…
За день до нее на вечеринке Джоанне всего на мгновение покажется, что Майкл неравнодушен к симпатичной Лауре, своей новой сотруднице, с которой ему предстоит отправиться в командировку… И когда на следующее утро неподалеку от дома Джоанна встретит своего бывшего возлюбленного, французского драматурга Алекса, она примет его предложение поужинать, не задумываясь…
Так начнется долгая ночь, которая станет для Джоанны и Майкла настоящим испытанием в супружеской верности…




Видео: 1152 x 492 (2.341), 23.976 fps,AVC, х264, High@L4.1 ~1 867 kbps avg, 0.137 bit/pixel
Аудио: 48 kHz, AC3 Dolby Digital, 3/2 (L,C,R,l,r) + LFE ch, ~384 kbps

General
Unique ID: 183475204127580447879557915515516858021 (0x8A0809F9D1AFC957816FFBD0EACBAEA5)
Complete name: E:\РЕЛИЗЫ\Все релизы 14\proshloi_nochju_[tfile.ru].mkv
Format: Matroska
File size: 1.45 GiB
Duration: 1h 32mn
Overall bit rate: 2 238 Kbps
Movie name: Proshloj nochju (2009) Release by Vaippp [OpenSharing Team]
Encoded date: UTC 2011-03-24 12:46:18
Writing application: mkvmerge v4.4.0 ('Die Wiederkehr') сборка от Oct 31 2010 21:52:48
Writing library: libebml v1.0.0 + libmatroska v1.0.0

Video
ID: 1
Format: AVC
Format/Info: Advanced Video Codec
Format profile: High@L4.1
Format settings, CABAC: Yes
Format settings, ReFrames: 12 frames
Codec ID: V_MPEG4/ISO/AVC
Duration: 1h 32mn
Bit rate: 1 867 Kbps
Width: 1 152 pixels
Height: 492 pixels
Display aspect ratio: 2.35:1
Frame rate: 23.976 fps
Color space: YUV
Chroma subsampling: 4:2:0
Bit depth: 8 bits
Scan type: Progressive
Bits/(Pixel*Frame): 0.137
Stream size: 1.17 GiB (81%)
Title: BDRip by Vaippp
Writing library: x264 core 112 r1867 22bfd31
Encoding settings: cabac=1 / ref=12 / deblock=1:-3:-3 / analyse=0x3:0x133 / me=umh / subme=9 / psy=1 / psy_rd=1.08:0.20 / mixed_ref=1 / me_range=32 / chroma_me=1 / trellis=2 / 8x8dct=1 / cqm=0 / deadzone=21,11 / fast_pskip=0 / chroma_qp_offset=-3 / threads=4 / sliced_threads=0 / nr=0 / decimate=1 / interlaced=0 / constrained_intra=0 / bframes=11 / b_pyramid=2 / b_adapt=2 / b_bias=0 / direct=3 / weightb=1 / open_gop=0 / weightp=2 / keyint=250 / keyint_min=23 / scenecut=40 / intra_refresh=0 / rc_lookahead=40 / rc=2pass / mbtree=0 / bitrate=1867 / ratetol=1.0 / qcomp=0.70 / qpmin=10 / qpmax=51 / qpstep=4 / cplxblur=20.0 / qblur=0.5 / vbv_maxrate=24000 / vbv_bufsize=30000 / nal_hrd=none / ip_ratio=1.40 / pb_ratio=1.30 / aq=1:0.90
Language: English

Audio
ID: 2
Format: AC-3
Format/Info: Audio Coding 3
Mode extension: CM (complete main)
Codec ID: A_AC3
Duration: 1h 32mn
Bit rate mode: Constant
Bit rate: 384 Kbps
Channel(s): 6 channels
Channel positions: Front: L C R, Side: L R, LFE
Sampling rate: 48.0 KHz
Bit depth: 16 bits
Compression mode: Lossy
Stream size: 254 MiB (17%)
Title: DUB R5
Language: Russian












Поделиться:




реклама партнёра


Вернуться к началу
 Профиль Отправить личное сообщение  
 
   Похожие торренты   Автор   Торрент   Размер 
В этой теме нет новых непрочитанных сообщений. Что случилось прошлой ночью / About Last Night [мелодрама, комедия, 2014] HDRip, Mvo [iTunes]

Dracon

1412 | 45

1.46 ГБ

В этой теме нет новых непрочитанных сообщений. Что случилось прошлой ночью / About Last Night (Стив Пинк) [2014, Мелодрама, комедия, HDRip | iTunes] mvo

Nickolas3435

243 | 9

748.46 МБ

В этой теме нет новых непрочитанных сообщений. Что случилось прошлой ночью / About Last Night... [драма, мелодрама, комедия, 1986] BDRip 720p, Dub

salma3

67 | 38

4.98 ГБ

В этой теме нет новых непрочитанных сообщений. Что случилось прошлой ночью / About Last Night [мелодрама, комедия, 2014] BDRip 1080p, Mvo+Sub [iTunes]

Dracon

3 | 2

10.43 ГБ

В этой теме нет новых непрочитанных сообщений. Прошлой ночью / The Night Before [комедия, 1988] DVD5, Mvo+Avo

salma3

9 | 3

3.51 ГБ

В этой теме нет новых непрочитанных сообщений. Прошлой ночью / Ночь после тусовки / The Night Before [Комедия, приключения, 1988] DVDRip, Mvo+Avo

salma3

74 | 9

1.46 ГБ

В этой теме нет новых непрочитанных сообщений. Тьма была ночью / Dark Was the Night (Джек Хеллер) [ужасы, триллер, драма, 2014] HDRip, mvo

Dracon

301 | 40

1.46 ГБ


Начать новую тему Ответить на тему  [ 1 сообщение ] 




Для Мосгорсуда, Роскомнадзора и рекламодателей:: mosgorsud-torrent[собачка]yandex.ru