Торрент файл
скачать торрент магнет ссылка Добавлен: 14 янв 2012, 23:43
Размер: 1.46 ГБ
Сидеров: 9
Личеров: 3
Автор

СообщениеДобавлено: 14 янв 2012, 23:43 

Не в сети
Супермодератор
Аватара пользователя
Дата регистрации:
11 апр 2010, 18:10
Спасибо: 5801 / 7
Сообщения: 56779
Как выйти замуж за миллиардера / Chalet Girl

Перевод: Профессиональный (полное дублирование), cубтитры: отсутствуют
Формат: DVDRip-AVC, MKV, H.264, AC3
Страна: Германия, Великобритания, Австрия
Режиссер: Фил Трэйл
Жанр: мелодрама, комедия
Продолжительность: 01:32:37
Год выпуска: 2011

В ролях: Фелисити Джонс, Эд Вествик, Билл Найи, Брук Шилдс, Тэмсин Эгертон, Билл Бэйли, София Буш, Грегор Блоеб, Адам Боусдукс, Николас Браун...

Описание: Ким, юная скромница английского городка, получает работу на фешенебельном горнолыжном курорте в Альпах. Ей сложно привыкнуть к новому миру роскоши, раскованности и снежных рекордов. Но вскоре Ким обнаруживает в себе талант к спуску на сноуборде и, кажется, влюбляется в симпатичного сына владельца курорта, отдыхающего здесь с подругой… Сможет ли Ким пробиться на Кубок Мира по сноуборду с ценным призом для победительницы? И как ей понять, не морочит ли «золотой мальчик» ей голову?



Видео: 720x544@1024x544 (1.882), 25.000 fps, х264, AVC, High@L3.1, ~ 1 800 Kbps Kbps, 0.184 bit/pixel
Аудио: 48 kHz, AC3 Dolby Digital, 3/2 (L,C,R,l,r) + LFE ch, ~448 kbps

General
Unique ID: 198133907272721376730546905738034537163 (0x950F33D7235E740F82C6E0450053E2CB)
Complete name: E:\РЕЛИЗЫ\Все релизы 14\kak_vuiti_zamuzh_za_milliardera_[tfile.ru].mkv
Format: Matroska
File size: 1.46 GiB
Duration: 1h 32mn
Overall bit rate: 2 249 Kbps
Movie name: Kak vyjti zamuzh za milliardera / 2011 / Release by Vaippp / OpenSharing Team
Encoded date: UTC 2011-05-11 20:40:40
Writing application: mkvmerge v4.7.0 ('Just Like You Imagined') сборка от Apr 21 2011 01:13:14
Writing library: libebml v1.2.0 + libmatroska v1.1.0

Video
ID: 1
Format: AVC
Format/Info: Advanced Video Codec
Format profile: High@L3.1
Format settings, CABAC: Yes
Format settings, ReFrames: 10 frames
Codec ID: V_MPEG4/ISO/AVC
Duration: 1h 32mn
Bit rate: 1 800 Kbps
Width: 720 pixels
Height: 544 pixels
Display aspect ratio: 1.882
Frame rate: 25.000 fps
Color space: YUV
Chroma subsampling: 4:2:0
Bit depth: 8 bits
Scan type: Progressive
Bits/(Pixel*Frame): 0.184
Stream size: 1.14 GiB (78%)
Title: DVDRip by Vaippp
Writing library: x264 core 114 r1924 08d04a4
Encoding settings: cabac=1 / ref=10 / deblock=1:-2:-1 / analyse=0x3:0x133 / me=umh / subme=9 / psy=1 / psy_rd=1.00:0.10 / mixed_ref=1 / me_range=32 / chroma_me=1 / trellis=1 / 8x8dct=1 / cqm=0 / deadzone=21,11 / fast_pskip=0 / chroma_qp_offset=-3 / threads=12 / sliced_threads=0 / nr=0 / decimate=1 / interlaced=0 / constrained_intra=0 / bframes=9 / b_pyramid=2 / b_adapt=2 / b_bias=0 / direct=3 / weightb=1 / open_gop=0 / weightp=2 / keyint=250 / keyint_min=25 / scenecut=40 / intra_refresh=0 / rc_lookahead=60 / rc=2pass / mbtree=1 / bitrate=1800 / ratetol=1.0 / qcomp=0.70 / qpmin=0 / qpmax=69 / qpstep=4 / cplxblur=20.0 / qblur=0.5 / ip_ratio=1.40 / aq=1:1.00 / zones=131094,138940,q=35
Language: English

Audio
ID: 2
Format: AC-3
Format/Info: Audio Coding 3
Mode extension: CM (complete main)
Codec ID: A_AC3
Duration: 1h 32mn
Bit rate mode: Constant
Bit rate: 448 Kbps
Channel(s): 6 channels
Channel positions: Front: L C R, Side: L R, LFE
Sampling rate: 48.0 KHz
Bit depth: 16 bits
Compression mode: Lossy
Stream size: 297 MiB (20%)
Title: DUB
Language: Russian













Поделиться:




реклама партнёра


Вернуться к началу
 Профиль Отправить личное сообщение  
 
   Похожие торренты   Автор   Торрент   Размер 
В этой теме нет новых непрочитанных сообщений. Как выйти замуж за 3 дня / Leap Year [мелодрама, комедия, 2010] BDRip 720p, Dub+Dvo+Avo+Sub

salma3

92 | 7

4.56 ГБ

В этой теме нет новых непрочитанных сообщений. Как выйти замуж за миллионера-2 [S02] (Наталья Хлопецкая) [Комедия, мелодрама, 2013] WEB-DL 1080p

Dracon

62 | 10

16.3 ГБ

В этой теме нет новых непрочитанных сообщений. Как выйти замуж за миллионера [02x01-12 из 12] (Наталья Хлопецкая) [Комедия, мелодрама, 2013] SATRip

Dracon

421 | 66

6.46 ГБ

В этой теме нет новых непрочитанных сообщений. Выйти замуж любой ценой [01-04 из 04] (Мелодрама, 2016) WEB-DLRip от Files-x

marya111

0 | 0

2.14 ГБ

В этой теме нет новых непрочитанных сообщений. Срочно выйду замуж [Комедия, мелодрама, 2015] WEB-DLRip

Dracon

20002 | 1353

1.46 ГБ

В этой теме нет новых непрочитанных сообщений. Срочно выйду замуж [Комедия, мелодрама, 2015] WEB-DL 720p

Dracon

2697 | 127

3.16 ГБ

В этой теме нет новых непрочитанных сообщений. Провинциалка / Девушка из пригорода / Suburban Girl [мелодрама, комедия, 2007] DVDRip, Mvo

salma3

19 | 2

1.45 ГБ


Начать новую тему Ответить на тему  [ 1 сообщение ] 




Для Мосгорсуда, Роскомнадзора и рекламодателей:: mosgorsud-torrent[собачка]yandex.ru