Торрент файл
скачать торрент магнет ссылка Добавлен: 14 янв 2012, 23:42
Размер: 743.2 МБ
Сидеров: 36
Личеров: 5
Автор

СообщениеДобавлено: 14 янв 2012, 23:42 

Не в сети
Супермодератор
Аватара пользователя
Дата регистрации:
11 апр 2010, 18:10
Спасибо: 5802 / 7
Сообщения: 56779
Как выйти замуж за миллиардера / Chalet Girl


Перевод: Профессиональный (полное дублирование)
Субтитры:отсутствуют
Формат: DVDRip-AVC, MKV, H.264, AC3

Страна: Германия, Великобритания, Австрия
Режиссер: Фил Трэйл
Жанр: мелодрама, комедия

Продолжительность: 01:32:37
Год выпуска: 2011

В ролях: Фелисити Джонс, Эд Вествик, Билл Найи, Брук Шилдс, Тэмсин Эгертон, Билл Бэйли, София Буш, Грегор Блоеб, Адам Боусдукс, Николас Браун...

Описание: Ким, юная скромница английского городка, получает работу на фешенебельном горнолыжном курорте в Альпах. Ей сложно привыкнуть к новому миру роскоши, раскованности и снежных рекордов. Но вскоре Ким обнаруживает в себе талант к спуску на сноуборде и, кажется, влюбляется в симпатичного сына владельца курорта, отдыхающего здесь с подругой… Сможет ли Ким пробиться на Кубок Мира по сноуборду с ценным призом для победительницы? И как ей понять, не морочит ли «золотой мальчик» ей голову?

[/field]



Видео: 720x392 (16:9), 25 fps, AVC MPEG-4 (x264) High@L4.1 ~992 kbps avg, 0.141 bit/pixel
Аудио: 48 kHz, AC3, 2 ch, ~128 kbps avg

Рип от: TswetkOFF

Релиз-Группа:




General
Unique ID: 178704196255400120885249788195981919213 (0x86712D2065B258B0877D88CC224A83ED)
Complete name: D:\Films\chalet_girl_[tfile.ru].mkv
Format: Matroska
File size: 743 MiB
Duration: 1h 32mn
Overall bit rate: 1 122 Kbps
Encoded date: UTC 2011-05-13 21:05:14
Writing application: mkvmerge v4.6.0 ('Still Crazy After All These Years') сборка от Apr1 2011 21:01:49
Writing library: libebml v1.2.0 + libmatroska v1.1.0

Video
ID: 1
Format: AVC
Format/Info: Advanced Video Codec
Format profile: High@L4.1
Format settings, CABAC: Yes
Format settings, ReFrames: 4 frames
Codec ID: V_MPEG4/ISO/AVC
Duration: 1h 32mn
Bit rate: 992 Kbps
Width: 720 pixels
Height: 392 pixels
Display aspect ratio: 16:9
Frame rate: 25.000 fps
Color space: YUV
Chroma subsampling: 4:2:0
Bit depth: 8 bits
Scan type: Progressive
Bits/(Pixel*Frame): 0.141
Stream size: 644 MiB (87%)
Writing library: x264 core 115 r1937 aa21558
Encoding settings: cabac=1 / ref=2 / deblock=1:-1:-1 / analyse=0x3:0x113 / me=hex / subme=6 / psy=1 / psy_rd=1.00:0.10 / mixed_ref=1 / me_range=16 / chroma_me=1 / trellis=1 / 8x8dct=1 / cqm=0 / deadzone=21,11 / fast_pskip=1 / chroma_qp_offset=-3 / threads=3 / sliced_threads=0 / nr=0 / decimate=1 / interlaced=0 / bluray_compat=0 / constrained_intra=0 / bframes=3 / b_pyramid=2 / b_adapt=1 / b_bias=0 / direct=1 / weightb=1 / open_gop=0 / weightp=1 / keyint=250 / keyint_min=25 / scenecut=40 / intra_refresh=0 / rc_lookahead=30 / rc=2pass / mbtree=1 / bitrate=992 / ratetol=1.0 / qcomp=0.60 / qpmin=0 / qpmax=69 / qpstep=4 / cplxblur=20.0 / qblur=0.5 / ip_ratio=1.40 / aq=1:1.00

Audio
ID: 2
Format: AC-3
Format/Info: Audio Coding 3
Mode extension: CM (complete main)
Codec ID: A_AC3
Duration: 1h 32mn
Bit rate mode: Constant
Bit rate: 128 Kbps
Channel(s): 2 channels
Channel positions: Front: L R
Sampling rate: 48.0 KHz
Bit depth: 16 bits
Compression mode: Lossy
Stream size: 84.8 MiB (11%)















Поделиться:




реклама партнёра


Вернуться к началу
 Профиль Отправить личное сообщение  
 
   Похожие торренты   Автор   Торрент   Размер 
В этой теме нет новых непрочитанных сообщений. Как выйти замуж за 3 дня / Leap Year [мелодрама, комедия, 2010] BDRip 720p, Dub+Dvo+Avo+Sub

salma3

92 | 7

4.56 ГБ

В этой теме нет новых непрочитанных сообщений. Как выйти замуж за миллионера-2 [S02] (Наталья Хлопецкая) [Комедия, мелодрама, 2013] WEB-DL 1080p

Dracon

62 | 10

16.3 ГБ

В этой теме нет новых непрочитанных сообщений. Как выйти замуж за миллионера [02x01-12 из 12] (Наталья Хлопецкая) [Комедия, мелодрама, 2013] SATRip

Dracon

421 | 66

6.46 ГБ

В этой теме нет новых непрочитанных сообщений. Выйти замуж любой ценой [01-04 из 04] (Мелодрама, 2016) WEB-DLRip от Files-x

marya111

0 | 0

2.14 ГБ

В этой теме нет новых непрочитанных сообщений. Срочно выйду замуж [Комедия, мелодрама, 2015] WEB-DLRip

Dracon

20002 | 1353

1.46 ГБ

В этой теме нет новых непрочитанных сообщений. Срочно выйду замуж [Комедия, мелодрама, 2015] WEB-DL 720p

Dracon

2697 | 127

3.16 ГБ

В этой теме нет новых непрочитанных сообщений. Провинциалка / Девушка из пригорода / Suburban Girl [мелодрама, комедия, 2007] DVDRip, Mvo

salma3

19 | 2

1.45 ГБ


Начать новую тему Ответить на тему  [ 1 сообщение ] 




Для Мосгорсуда, Роскомнадзора и рекламодателей:: mosgorsud-torrent[собачка]yandex.ru