Торрент файл
скачать торрент магнет ссылка Добавлен: 14 янв 2012, 23:36
Размер: 1.45 ГБ
Сидеров: 103
Личеров: 9
Автор

СообщениеДобавлено: 14 янв 2012, 23:36 

Не в сети
Супермодератор
Аватара пользователя
Дата регистрации:
11 апр 2010, 18:10
Спасибо: 5798 / 7
Сообщения: 56779
Воды слонам! / Water for Elephants

Перевод: Профессиональный (полное дублирование) [Лицензия], cубтитры: отсутствуют
Формат: DVDRip-AVC, MKV, H264, AC3
Страна: США

Режиссер: Френсис Лоуренс
Жанр: драма
Продолжительность: 01:55:31

Год выпуска: 2011
В ролях: Роберт Паттинсон, Риз Уизерспун, Кристоф Вальц, Пол Шнайдер, Джим Нортон, Марк Повинелли, Ричард Брэйк, Стивен Тейлор, Кен Фори, Хэл Холбрук

Описание: Времена Великой депрессии. Студент-ветеринар Якоб бросает учебу после того, как его родители погибают, и присоединяется к «Benzini Brothers», самому грандиозному цирковому шоу на Земле. Там он начинает работать ветеринаром, а заодно и влюбляется в прекрасную наездницу Марлену, которая, правда, замужем за Августом, харизматичным, но жестоким дрессировщиком.



Видео: 720x424 @ 1024x424 (2.35:1), 25.000 fps, AVC (H264), High@L4.1, 1417 kbps, 0.182 bit/pixel
Аудио: 48 KHz, AC3 Dolby Digital, 6 channels, 384 kbps, 3/2 (L,C,R,l,r) + LFE ch







Формат: Matroska
Размер файла: 1,45 Гбайт
Продолжительность: 1 ч. 55 м.
Общий поток: 1802 Кбит/сек
Название фильма: Vody slonam ! / 2011/ Release by Vaippp / OpenSharing Team
Дата кодирования: UTC 2011-05-19 23:22:08
Программа кодирования: mkvmerge v4.7.0 ('Just Like You Imagined') сборка от Apr 21 2011 01:13:14
Библиотека кодирования: libebml v1.2.0 + libmatroska v1.1.0

Видео
Идентификатор: 1
Формат: AVC
Формат/Информация: Advanced Video Codec
Профиль формата: High@L3.1
Параметр CABAC формата: Да
Параметр ReFrames формата: 9 кадров
Идентификатор кодека: V_MPEG4/ISO/AVC
Продолжительность: 1 ч. 55 м.
Битрейт: 1417 Кбит/сек
Ширина: 720 пикс.
Высота: 432 пикс.
Соотношение сторон: 2,35:1
Частота кадров: 25,000 кадр/сек
Цветовое пространство: YUV
Подвыборка цветности: 4:2:0
Битовая глубина: 8 бит
Тип развёртки: Прогрессивная
Бит/(Пиксели*Кадры): 0.182
Размер потока: 1,12 Гбайт (77%)
Заголовок: DVDRip by Vaippp
Библиотека кодирования: x264 core 114 r1924 08d04a4
Настройки программы: cabac=1 / ref=9 / deblock=1:-2:-1 / analyse=0x3:0x133 / me=umh / subme=9 / psy=1 / psy_rd=1.05:0.15 / mixed_ref=1 / me_range=32 / chroma_me=1 / trellis=1 / 8x8dct=1 / cqm=0 / deadzone=21,11 / fast_pskip=0 / chroma_qp_offset=-3 / threads=12 / sliced_threads=0 / nr=0 / decimate=1 / interlaced=0 / constrained_intra=0 / bframes=7 / b_pyramid=2 / b_adapt=2 / b_bias=0 / direct=3 / weightb=1 / open_gop=0 / weightp=2 / keyint=250 / keyint_min=25 / scenecut=40 / intra_refresh=0 / rc_lookahead=60 / rc=2pass / mbtree=1 / bitrate=1417 / ratetol=1.0 / qcomp=0.65 / qpmin=0 / qpmax=69 / qpstep=4 / cplxblur=20.0 / qblur=0.5 / ip_ratio=1.40 / aq=1:1.00
Язык: English

Аудио
Идентификатор: 2
Формат: AC-3
Формат/Информация: Audio Coding 3
Расширение режима: CM (complete main)
Идентификатор кодека: A_AC3
Продолжительность: 1 ч. 55 м.
Вид битрейта: Постоянный
Битрейт: 384 Кбит/сек
Каналы: 6 каналов
Расположение каналов: Front: L C R, Side: L R, LFE
Частота: 48,0 КГц
Битовая глубина: 16 бит
Метод сжатия: С потерями
Размер потока: 317 Мбайт (21%)
Заголовок: DUB
Язык: Russian


Поделиться:




реклама партнёра


Вернуться к началу
 Профиль Отправить личное сообщение  
 
   Похожие торренты   Автор   Торрент   Размер 
В этой теме нет новых непрочитанных сообщений. Круг чистой воды / Ring of Bright Water [драма, комедия, семейный, 1969] DVDRip, Avo+Sub

salma3

12 | 4

1.47 ГБ

В этой теме нет новых непрочитанных сообщений. Как рыбка без воды / Like a fish out of water [Триллер, Комедия, Криминал, 1999] DVDRip, Mvo

salma3

26 | 2

1.46 ГБ

В этой теме нет новых непрочитанных сообщений. Лето белой воды / White Water Summer [драма, приключения, 1987] WEB-DL 720p, Mvo

salma3

14 | 4

3.23 ГБ

В этой теме нет новых непрочитанных сообщений. Искатель воды / The Water Diviner (Рассел Кроу) [Военный, Драма, 2014] HDRip, Dub [iTunes]

Dracon

140 | 5

1.46 ГБ

В этой теме нет новых непрочитанных сообщений. Искатель воды / The Water Diviner (Рассел Кроу) [Военный, Драма, 2014] HDRip-AVC, Dub [iTunes]

Dracon

56 | 2

1.61 ГБ

В этой теме нет новых непрочитанных сообщений. Искатель воды / The Water Diviner (Рассел Кроу) [Военный, Драма, 2014] BDRip 720p, Dub [iTunes]

Dracon

10 | 1

5.9 ГБ

В этой теме нет новых непрочитанных сообщений. Искатель воды / The Water Diviner (Рассел Кроу) [Военный, Драма, 2014] BDRip 1080p, Dub [iTunes]

Dracon

40 | 3

10.14 ГБ


Начать новую тему Ответить на тему  [ 1 сообщение ] 




Для Мосгорсуда, Роскомнадзора и рекламодателей:: mosgorsud-torrent[собачка]yandex.ru