Торрент файл
скачать торрент магнет ссылка Добавлен: 14 янв 2012, 23:36
Размер: 2.01 ГБ
Сидеров: 9
Личеров: 3
Автор

СообщениеДобавлено: 14 янв 2012, 23:36 

Не в сети
Супермодератор
Аватара пользователя
Дата регистрации:
11 апр 2010, 18:10
Спасибо: 5953 / 7
Сообщения: 56776
Будь моим парнем на пять минут / Nick and Norah's Infinite Playlist

Перевод: Профессиональный (полное дублирование), cубтитры: Английские
Формат: HDRip-AVC, MKV, H.264, AC3
Страна: США
Режиссер: Питер Соллетт
Жанр: мелодрама, комедия, драма
Продолжительность: 01:29:33
Год выпуска: 2008
В ролях: Майкл Сера, Кэт Деннингз, Аарон Йу, Рафи Гаврон, Эри Грейнор, Алексис Дзена, Джонатан Б. Райт, Захари Бут, Джей Барушель, Джастин Райс, Джереми Хайнс, Сэмми Марк Рубин, Гленн Кубота, Сет Майерс, Эдди Кэй Томас, Фрэнки Фэйзон, Джон Чо
Описание: Ник О’Лири играет на бас гитаре в музыкальной группе The Jerk Offs и раскатывает по городу на своем маленьком раздолбанном желтом автомобиле. На одном из концертов в клубе, он встречается со своей школьной подругой Сарой Сильверберг, которая просит стать ее парнем на пять минут для того, чтобы избежать конфликта со своим бывшем парнем и не позориться перед подругами. Слегка офигевший Ник соглашается, но становится парнем Сары не на пять минут, а на каждый вечер, который они проводят вместе...



Видео: 1024 x 552 (1.855), 23.976 fps, AVC, High@L4.1, х264, ~ 2 323 Kbps Kbps, 0.171 bit/pixel
Аудио:#1:русский 48 kHz, AC3 Dolby Digital, 3/2 (L,C,R,l,r) + LFE ch, ~448 kbps [Профессиональный (полное дублирование)]
Аудио:#2:английский 48 kHz, AC3 Dolby Digital, 3/2 (L,C,R,l,r) + LFE ch, ~448 kbps [Оригинал]

General
Unique ID: 247445379766899547882561915072624258275 (0xBA283F2469288744943766E2C31CECE3)
Complete name: E:\РЕЛИЗЫ\Все релизы 16\bud_moim_parnem_na_pjat_minut_[tfile.ru].mkv
Format: Matroska
File size: 2.01 GiB
Duration: 1h 29mn
Overall bit rate: 3 211 Kbps
Movie name: NovaLan (Vladislav71)
Encoded date: UTC 2011-05-16 10:25:40
Writing application: mkvmerge v4.0.0 ('The Stars were mine') сборка от Jun6 2010 16:18:42
Writing library: libebml v1.0.0 + libmatroska v1.0.0

Video
ID: 1
Format: AVC
Format/Info: Advanced Video Codec
Format profile: High@L4.1
Format settings, CABAC: Yes
Format settings, ReFrames: 8 frames
Codec ID: V_MPEG4/ISO/AVC
Duration: 1h 29mn
Bit rate: 2 323 Kbps
Width: 1 024 pixels
Height: 552 pixels
Display aspect ratio: 1.855
Frame rate: 23.976 fps
Color space: YUV
Chroma subsampling: 4:2:0
Bit depth: 8 bits
Scan type: Progressive
Bits/(Pixel*Frame): 0.171
Stream size: 1.41 GiB (70%)
Writing library: x264 core 92 r1510 33d382a
Encoding settings: cabac=1 / ref=8 / deblock=1:-1:-1 / analyse=0x3:0x133 / me=umh / subme=7 / psy=1 / psy_rd=1.00:0.10 / mixed_ref=1 / me_range=16 / chroma_me=1 / trellis=2 / 8x8dct=1 / cqm=0 / deadzone=21,11 / fast_pskip=0 / chroma_qp_offset=-3 / threads=3 / sliced_threads=0 / nr=0 / decimate=1 / interlaced=0 / constrained_intra=0 / bframes=3 / b_pyramid=2 / b_adapt=2 / b_bias=0 / direct=3 / wpredb=1 / wpredp=2 / keyint=250 / keyint_min=25 / scenecut=40 / intra_refresh=0 / rc_lookahead=50 / rc=2pass / mbtree=1 / bitrate=2323 / ratetol=1.0 / qcomp=0.60 / qpmin=10 / qpmax=51 / qpstep=4 / cplxblur=20.0 / qblur=0.5 / ip_ratio=1.40 / aq=1:1.00
Language: English

Audio #1
ID: 2
Format: AC-3
Format/Info: Audio Coding 3
Mode extension: CM (complete main)
Codec ID: A_AC3
Duration: 1h 29mn
Bit rate mode: Constant
Bit rate: 448 Kbps
Channel(s): 6 channels
Channel positions: Front: L C R, Side: L R, LFE
Sampling rate: 48.0 KHz
Bit depth: 16 bits
Compression mode: Lossy
Stream size: 287 MiB (14%)
Language: Russian

Audio #2
ID: 3
Format: AC-3
Format/Info: Audio Coding 3
Mode extension: CM (complete main)
Codec ID: A_AC3
Duration: 1h 29mn
Bit rate mode: Constant
Bit rate: 448 Kbps
Channel(s): 6 channels
Channel positions: Front: L C R, Side: L R, LFE
Sampling rate: 48.0 KHz
Bit depth: 16 bits
Compression mode: Lossy
Stream size: 287 MiB (14%)
Language: English

Text
ID: 4
Format: UTF-8
Codec ID: S_TEXT/UTF8
Codec ID/Info: UTF-8 Plain Text
Language: English















Поделиться:




реклама партнёра


Вернуться к началу
 Профиль Отправить личное сообщение  
 
   Похожие торренты   Автор   Торрент   Размер 
В этой теме нет новых непрочитанных сообщений. Будь моим Валентином / Be My Valentine [Мелодрама, 2013] SATRip, Mvo

salma3

71 | 5

1.17 ГБ

В этой теме нет новых непрочитанных сообщений. Будь моим Валентином / Be My Valentine [Мелодрама, 2013] DVDRip, Mvo

salma3

97 | 4

1.37 ГБ

В этой теме нет новых непрочитанных сообщений. I Caught My Daughter Fucking My Boyfriend! 2 / Я Поймала Свою Дочь за Сексом с Моим Парнем! 2 (Devil's Film) [2017 г., All Sex, Big Tits, Hardcore, 18+ Teens, Mature, MILF, Older Men, DVDRip]

max77777

4 | 0

1.52 ГБ

В этой теме нет новых непрочитанных сообщений. Небольшое привидение: Вы знакомы с моим другом вурдалаком? / Mostly Ghostly: Have You Met My Ghoulfriend? (Питер Хьюит) [комедия, семейный, 2014] HDRip, dub [чистый звук]

Dracon

885 | 41

1.37 ГБ

В этой теме нет новых непрочитанных сообщений. Пять минут тишины (1-10 серии из 10) [детектив, приключения, 2017] SATRip

salma3

1420 | 337

6.11 ГБ

В этой теме нет новых непрочитанных сообщений. Пять минут тишины (1-10 серии из 10) [приключения, детектив, 2016] HDTVRip-AVC

salma3

468 | 147

7.29 ГБ

В этой теме нет новых непрочитанных сообщений. Пять минут тишины (1-10 серии из 10) [приключения, детектив, 2016] HDTVRip 720p

salma3

451 | 158

12.22 ГБ


Начать новую тему Ответить на тему  [ 1 сообщение ] 




Для Мосгорсуда, Роскомнадзора и рекламодателей:: mosgorsud-torrent[собачка]yandex.ru