Торрент файл
скачать торрент магнет ссылка Добавлен: 14 янв 2012, 23:28
Размер: 1.36 ГБ
Сидеров: 34
Личеров: 9
Автор

СообщениеДобавлено: 14 янв 2012, 23:28 

Не в сети
Супермодератор
Аватара пользователя
Дата регистрации:
11 апр 2010, 18:10
Спасибо: 5802 / 7
Сообщения: 56779
Букет / Kytice / Wild Flowers

Язык: Чешский, cубтитры:Русские(внешние)
Формат: DVDRip-AVC , MKV, H.264, AC3
Страна: Чехия
Режиссер: Франтишек Антонин Брабек
Жанр: драма, мелодрама, ужасы, мистика
Продолжительность: 01:20:22
Год выпуска: 2000

В ролях: Карел Роден, Анна Гейслерова, Болек Поливка, Дан Барта, Клара Седлачкова, Карел Добры, Стелла Зазворкова, Сандра Новакова, Алена Михулова, Сюзана Быджовска, Линда Рыбова

Описание: Безумно красивый поэтический фильм , состоящий из 7 баллад-сказок по мотивам чешского (моравского) фольклора, с красивыми подводными съемками. Все они о любви и страсти, которые не подвластны времени. Невесты и жены встречаются с водяными духами, князьями, колдуньями; дева-утопленница; мачеха-садистка; мертвый жених, влекущий на кладбище живую невесту; повешение детоубийцы...
Литературной основой фильма "Букет" послужили стилизованные под фольклор баллады чешского неоромантика Эрбена...




Видео: 720 x 392 (1.837),25.000 fps, MPEG4 AVC (ч264) High@L3.0,~ 2233 kbps avg, 0.316 bit/pixel
Аудио: 48 kHz, AC-3, 2 ch(Front: L R),~ 192 Kbps


General
Unique ID: 205565828733254130727394354815628187396 (0x9AA689DBCAD7EDCCA6B66EFBFD379704)
Complete name: C:\Documents and Settings\Admin.MICROSOF-42B712\Мои документы\Downloads\Новинки\Kytice\Kytice.mkv
Format: Matroska
File size: 1.36 GiB
Duration: 1h 20mn
Overall bit rate: 2 428 Kbps
Encoded date: UTC 2009-07-03 14:57:30
Writing application: mkvmerge v2.4.0 ('Fumbling Towards Ecstasy') built on Oct 11 2008 20:13:15
Writing library: libebml v0.7.7 + libmatroska v0.8.1

Video
ID: 1
Format: AVC
Format/Info: Advanced Video Codec
Format profile: High@L3.0
Format settings, CABAC: Yes
Format settings, ReFrames: 3 frames
Codec ID: V_MPEG4/ISO/AVC
Duration: 1h 20mn
Bit rate: 2 233 Kbps
Width: 720 pixels
Height: 392 pixels
Display aspect ratio: 16:9
Frame rate: 25.000 fps
Color space: YUV
Chroma subsampling: 4:2:0
Bit depth: 8 bits
Scan type: Progressive
Bits/(Pixel*Frame): 0.316
Stream size: 1.23 GiB (90%)
Writing library: x264 core 67 r1173 f6d3166
Encoding settings: cabac=1 / ref=3 / deblock=1:-2:-1 / analyse=0x3:0x133 / me=umh / subme=7 / psy_rd=1.0:0.0 / mixed_ref=1 / me_range=16 / chroma_me=1 / trellis=2 / 8x8dct=1 / cqm=0 / deadzone=21,11 / chroma_qp_offset=-2 / threads=1 / nr=0 / decimate=0 / mbaff=0 / bframes=3 / b_pyramid=0 / b_adapt=1 / b_bias=0 / direct=3 / wpredb=1 / keyint=250 / keyint_min=25 / scenecut=40 / rc=2pass / bitrate=2233 / ratetol=1.0 / qcomp=0.60 / qpmin=10 / qpmax=51 / qpstep=4 / cplxblur=20.0 / qblur=0.5 / ip_ratio=1.40 / pb_ratio=1.30 / aq=1:1.00

Audio
ID: 2
Format: AC-3
Format/Info: Audio Coding 3
Mode extension: CM (complete main)
Codec ID: A_AC3
Duration: 1h 20mn
Bit rate mode: Constant
Bit rate: 192 Kbps
Channel(s): 2 channels
Channel positions: Front: L R
Sampling rate: 48.0 KHz
Bit depth: 16 bits
Compression mode: Lossy
Stream size: 110 MiB (8%)









Поделиться:




реклама партнёра


Вернуться к началу
 Профиль Отправить личное сообщение  
 
   Похожие торренты   Автор   Торрент   Размер 
В этой теме нет новых непрочитанных сообщений. Спасти Хэррисона / Harrison's Flowers [драма, мелодрама, военный, 2000] DVDRip, Mvo

salma3

59 | 47

2.05 ГБ

В этой теме нет новых непрочитанных сообщений. Дым картофельной ботвы / Dým bramborové nate (Франтишек Влачил / Frantisek Vlácil) [1977г., Чехословакия, драма, DVDRip] Dub

Alfredovich

60 | 1

1.46 ГБ

В этой теме нет новых непрочитанных сообщений. Рейвенсвуд / Ravenswood [s01] [ужасы, мистика, триллер, драма, мелодрама, 2014] WEB-DLRip, mvo [Flux-Team]

Dracon

79 | 15

5.05 ГБ

В этой теме нет новых непрочитанных сообщений. Шальной Джокер / Joker's Wild [ужасы, триллер, 2016] DVDRip, Mvo

salma3

542 | 67

1.37 ГБ

В этой теме нет новых непрочитанных сообщений. Дракула 2000 / Dracula 2000 [ужасы, фэнтези, боевик, триллер, 2000] BDRip 1080p, Dub+Sub

salma3

54 | 14

9.81 ГБ

В этой теме нет новых непрочитанных сообщений. Дракула 2000 / Dracula 2000 [ужасы, фэнтези, боевик, триллер, 2000] BDRip 720p, Dub+Sub

salma3

101 | 8

3.83 ГБ

В этой теме нет новых непрочитанных сообщений. Пирокинез / Kurosufaia [ужасы, драма, криминал, 2000] DVDRip, Avo

salma3

5 | 4

1.45 ГБ


Начать новую тему Ответить на тему  [ 1 сообщение ] 




Для Мосгорсуда, Роскомнадзора и рекламодателей:: mosgorsud-torrent[собачка]yandex.ru