Торрент файл
скачать торрент магнет ссылка Добавлен: 14 янв 2012, 23:28
Размер: 2.08 ГБ
Сидеров: 19
Личеров: 9
Автор

СообщениеДобавлено: 14 янв 2012, 23:28 

Не в сети
Супермодератор
Аватара пользователя
Дата регистрации:
11 апр 2010, 18:10
Спасибо: 5801 / 7
Сообщения: 56779
Меня там нет / I'm Not There



Перевод: Профессиональный (многоголосый, закадровый), cубтитры: отсутствуют
Формат: HDRip-AVC, MKV, H.264, AC3
Страна: США, Германия
Режиссер: Тодд Хейнс
Жанр: драма, биография, музыка
Продолжительность: 02:15:04
Год выпуска: 2007

В ролях: Кейт Бланшетт, Бен Уишоу, Кристиан Бэйл, Ричард Гир, Маркус Карл Франклин, Хит Леджер, Крис Кристофферсон, Дон Фрэнкс..

Описание: Своеобразная биография Боба Дилана — шесть историй, шесть персонажей, каждый из которых символизирует определенный период в жизни легендарного исполнителя или особенности его творчества.
Одиннадцатилетний мальчик, называющий себя Вуди Гуатри, символизирует детство Дилана; он сбегает из детского исправительного центра и отправляется в путешествие, вдвоем с гитарой, на чехле которой написано: «Эта штука убивает фашистов». Затем на сцене появляется Джек Роллинс — молодой исполнитель песен в стиле фолк — чуть позже этот социально активный юноша откроет для себя христианство и станет пастором Джоном в церкви маленького захолустного городка.
Джуд Куинн — это Дилан на вершине своей славы в 60-е годы, а затем Дилан предстает в образе бунтаря, идентифицирующего себя с поэтом Артюром Рембо. Робби Кларк — выдуманный голливудский актер, прославившийся главной ролью в фильме о Джеке Роллинсе, и в то же время Робби — это Дилан-романтик, тяжело переживающий разрыв со своей женой. И, наконец, есть Малыш Билли — постаревший Дилан в декорациях вымышленного городка на Диком Западе.




Видео: 1072 x 456 (2.351), 24.000 fps, AVC, х264, High@L4.1, ~ 1755 Kbps Kbps, 0.150 bit/pixel
Аудио: 48 kHz, AC3 Dolby Digital, 3/2 (L,C,R,l,r) + LFE ch, ~448 kbps


Рип: jeenart

Оскар, 2008 год

Номинации (1):

___Лучшая женская роль второго плана (Кейт Бланшетт)


Золотой глобус, 2008 год

Номинации (1):

___Лучшая женская роль второго плана (Кейт Бланшетт)


Британская академия, 2008 год

Номинации (1):

___Лучшая женская роль второго плана (Кейт Бланшетт)


Венецианский кинофестиваль, 2007 год

Номинации (3):

___Специальный приз жюри
___Кубок Вольпи за лучшую женскую роль (Кейт Бланшетт)
___Награда CinemAvvenire за лучший фильм

Очень интересное, необычное, удивительное кино, сопровождаемое волшебной музыкой Боба Дилана. Про него, про них, про каждого. История шестерых и одного.
Актерская игра на высоте. Особенно Кейт Бланшет! Ей действительно веришь и проживаешь ее эпизоды как-будто ты рядом; так же чувствуешь, то же говоришь, не спишь и постоянно куришь. Прекрасное перевоплощение великолепной актрисы в великого музыканта!
Хит Леджер… Это Хит Леджер. Резвый, ранимый, единственный в своем роде, неповторимый. Тандем с Шарлоттой Гейнсбург просто фантастический.

Очень порадовал актер, сыгравший Вуди: легко и убедительно!

При всей нелогичности повествования фильм совершенно не напрягает. Его стоит смотреть не только ценителям творчества Дилона, но и просто тем, кто не равнодушен к качественному кино и выдающимся актерским работам.
General
Unique ID: 224682952611334818240036176397441861693 (0xA9085CD627C2D2EEB026F613F5C6883D)
Complete name: F:\Мои релизы\Все релизы 8\menya_tam_net_[tfile.ru].mkv
Format: Matroska
File size: 2.08 GiB
Duration: 2h 15mn
Overall bit rate: 2 203 Kbps
Encoded date: UTC 2011-06-06 08:05:07
Writing application: mkvmerge v4.6.0 ('Still Crazy After All These Years') сборка от Apr1 2011 21:01:49
Writing library: libebml v1.2.0 + libmatroska v1.1.0

Video
ID: 1
Format: AVC
Format/Info: Advanced Video Codec
Format profile: High@L4.1
Format settings, CABAC: Yes
Format settings, ReFrames: 3 frames
Codec ID: V_MPEG4/ISO/AVC
Duration: 2h 15mn
Bit rate: 1 755 Kbps
Width: 1 072 pixels
Height: 456 pixels
Display aspect ratio: 2.35:1
Frame rate: 24.000 fps
Color space: YUV
Chroma subsampling: 4:2:0
Bit depth: 8 bits
Scan type: Progressive
Bits/(Pixel*Frame): 0.150
Stream size: 1.61 GiB (78%)
Writing library: x264 core 115 r1937 aa21558
Encoding settings: cabac=1 / ref=3 / deblock=1:-1:-1 / analyse=0x3:0x113 / me=dia / subme=7 / psy=1 / psy_rd=1.00:0.10 / mixed_ref=1 / me_range=16 / chroma_me=1 / trellis=1 / 8x8dct=1 / cqm=0 / deadzone=21,11 / fast_pskip=1 / chroma_qp_offset=-3 / threads=6 / sliced_threads=0 / nr=0 / decimate=1 / interlaced=0 / bluray_compat=0 / constrained_intra=0 / bframes=1 / b_pyramid=0 / b_adapt=0 / b_bias=0 / direct=0 / weightb=1 / open_gop=0 / weightp=0 / keyint=250 / keyint_min=23 / scenecut=40 / intra_refresh=0 / rc_lookahead=40 / rc=2pass / mbtree=1 / bitrate=1755 / ratetol=1.0 / qcomp=0.60 / qpmin=0 / qpmax=69 / qpstep=4 / cplxblur=20.0 / qblur=0.5 / ip_ratio=1.40 / aq=1:1.00

Audio
ID: 2
Format: AC-3
Format/Info: Audio Coding 3
Mode extension: CM (complete main)
Codec ID: A_AC3
Duration: 2h 15mn
Bit rate mode: Constant
Bit rate: 448 Kbps
Channel(s): 6 channels
Channel positions: Front: L C R, Side: L R, LFE
Sampling rate: 48.0 KHz
Bit depth: 16 bits
Compression mode: Lossy
Stream size: 433 MiB (20%)




















Поделиться:




реклама партнёра


Вернуться к началу
 Профиль Отправить личное сообщение  
 
   Похожие торренты   Автор   Торрент   Размер 
В этой теме нет новых непрочитанных сообщений. Милдред Пирс / Mildred Pierce [01-05 из 05] (Тодд Хейнс) [2011, Драма, HDRip | Домашний]

Dracon

32 | 12

3.51 ГБ

В этой теме нет новых непрочитанных сообщений. Вальс для Моники / Monica Z (Пер Флю) [Драма, биография, музыка, 2013] HDRip, Mvo

Dracon

0 | 4

1.46 ГБ

В этой теме нет новых непрочитанных сообщений. Дикая жизнь / Das wilde Leben [драма, комедия, биография, музыка, 2007] DVDRip, Avo

salma3

32 | 2

1.46 ГБ

В этой теме нет новых непрочитанных сообщений. Рождённый для грусти / Born to Be Blue [драма, биография, музыка, 2015] HDRip, Mvo

salma3

100 | 2

699.67 МБ

В этой теме нет новых непрочитанных сообщений. Бесси / Bessie (Ди Риис) [Драма, Биография, Музыка, 2015] HDRip, Mvo [Amedia]

Dracon

3 | 0

1.37 ГБ

В этой теме нет новых непрочитанных сообщений. Спасти мистера Бэнкса / Saving Mr. Banks [драма, история, биография, музыка, 2013] HDRip, Mvo

Dracon

721 | 21

1.45 ГБ

В этой теме нет новых непрочитанных сообщений. Джими Хендрикс / All Is by My Side (Джон Ридли) [Драма, биография, музыка, 2013] HDRip, Mvo [лицензия]

Dracon

4 | 3

1.37 ГБ


Начать новую тему Ответить на тему  [ 1 сообщение ] 




Для Мосгорсуда, Роскомнадзора и рекламодателей:: mosgorsud-torrent[собачка]yandex.ru