Торрент файл
скачать торрент магнет ссылка Добавлен: 14 янв 2012, 23:20
Размер: 2.05 ГБ
Сидеров: 28
Личеров: 4
Автор

СообщениеДобавлено: 14 янв 2012, 23:20 

Не в сети
Супермодератор
Аватара пользователя
Дата регистрации:
11 апр 2010, 18:10
Спасибо: 5960 / 7
Сообщения: 56765
Любовь: Инструкция по применению / Manuale d'am3re

Перевод: Профессиональный (полное дублирование), cубтитры: отсутствуют
Формат: DVDRip-AVC, MKV, H.264, AC3
Страна: Италия
Режиссер: Джованни Веронези
Жанр: мелодрама, комедия
Продолжительность: 02:01:07
Год выпуска: 2011

В ролях: Роберт Де Ниро, Моника Беллуччи, Риккардо Скамарчио, Микеле Плачидо, Лаура Кьятти, Валерия Соларино, Карло Вердоне, Донателла Финокьяро, Даниэле Печчи, Марина Рокко

Описание: Три новеллы повествуют о том, какой бывает любовь в разные периоды жизни и как переплетения судеб и житейские случайности помогают разобраться в природе человеческих чувств.

«Молодость» — это история, молодого амбициозного юриста Роберто, которого накануне своей свадьбы неожиданно ослепляет вспышка страсти к совсем другой женщине…

В «Зрелости» успешный телеведущий Фабио, преданный муж и заботливый отец, по стечению удивительных обстоятельств оказывается в объятиях молодой Элианы…

«После» — история Адриана, американского профессора истории искусств, который после развода решает переехать в Рим. Он одинок и подавлен. Единственный, кто проявляет к Адриану хоть какой-то интерес — это швейцар Августо. Именно ему Адриан рассказывает свою тайну: семь лет назад он перенес сложнейшую операцию на сердце. Сжалившись над одиноким Адрианом, Августо приводит его в свой дом и знакомит со своей семьей. Но как только Адриан видит красавицу-дочь Августо, он мгновенно забывает о шрамах на своем сердце.


[/field]

Видео: 720x552@1024х552, (16:9) 25,000 fps,AVC, х264, High@L4.1, ~ 2 037 Kbps ,0.205 bit/pixel
Аудио: 48 KHz, AC3,6 ch.,~384.00 kbps

General
Unique ID: 251682426977314712235932233647533953666 (0xBD5845B2C6D7D757A65923D968B99282)
Complete name: E:\Загрузки\Lubov.instrukciya.po.primeneniyu.2011.DVDRip-AVC.mkv
Format: Matroska
File size: 2.05 GiB
Duration: 2h 1mn
Overall bit rate: 2 422 Kbps
Encoded date: UTC 2011-06-29 03:12:05
Writing application: mkvmerge v4.8.0 ('I Got The...') сборка от May 24 2011 03:12:58
Writing library: libebml v1.2.0 + libmatroska v1.1.0

Video
ID: 1
Format: AVC
Format/Info: Advanced Video Codec
Format profile: High@L4.1
Format settings, CABAC: Yes
Format settings, ReFrames: 8 frames
Format settings, GOP: M=1, N=32
Codec ID: V_MPEG4/ISO/AVC
Duration: 2h 1mn
Bit rate: 2 037 Kbps
Width: 720 pixels
Height: 552 pixels
Display aspect ratio: 1.857
Original display aspect ratio: 16:9
Frame rate: 25.000 fps
Color space: YUV
Chroma subsampling: 4:2:0
Bit depth: 8 bits
Scan type: Progressive
Bits/(Pixel*Frame): 0.205
Stream size: 1.68 GiB (82%)
Writing library: x264 core 115 r1937 aa21558
Encoding settings: cabac=1 / ref=8 / deblock=1:-1:-1 / analyse=0x3:0x133 / me=umh / subme=9 / psy=1 / psy_rd=1.00:0.10 / mixed_ref=1 / me_range=16 / chroma_me=1 / trellis=2 / 8x8dct=1 / cqm=0 / deadzone=21,11 / fast_pskip=1 / chroma_qp_offset=-3 / threads=6 / sliced_threads=0 / nr=0 / decimate=1 / interlaced=0 / bluray_compat=0 / constrained_intra=0 / bframes=3 / b_pyramid=2 / b_adapt=2 / b_bias=0 / direct=3 / weightb=1 / open_gop=0 / weightp=2 / keyint=250 / keyint_min=25 / scenecut=40 / intra_refresh=0 / rc_lookahead=60 / rc=2pass / mbtree=1 / bitrate=2037 / ratetol=1.0 / qcomp=0.60 / qpmin=0 / qpmax=69 / qpstep=4 / cplxblur=20.0 / qblur=0.5 / ip_ratio=1.40 / aq=1:1.00

Audio
ID: 2
Format: AC-3
Format/Info: Audio Coding 3
Mode extension: CM (complete main)
Codec ID: A_AC3
Duration: 2h 1mn
Bit rate mode: Constant
Bit rate: 384 Kbps
Channel(s): 6 channels
Channel positions: Front: L C R, Side: L R, LFE
Sampling rate: 48.0 KHz
Bit depth: 16 bits
Compression mode: Lossy
Delay relative to video: 1s 300ms
Stream size: 333 MiB (16%)
Title: Дубляж [R5]
Language: Russian








Поделиться:




реклама партнёра


Вернуться к началу
 Профиль Отправить личное сообщение  
 
   Похожие торренты   Автор   Торрент   Размер 
В этой теме нет новых непрочитанных сообщений. Вот так подружка / Una Donna per Amica (Джованни Веронези) [комедия, 2014] HDRip, mvo [Звук с TS]

Dracon

1613 | 101

1.36 ГБ

В этой теме нет новых непрочитанных сообщений. Вот так подружка / Una Donna per Amica (Джованни Веронези) [комедия, 2014] HDRip, mvo [чистый звук]

Dracon

5 | 2

1.46 ГБ

В этой теме нет новых непрочитанных сообщений. Вот так подружка / Una Donna per Amica (Джованни Веронези) [комедия, 2014] BDRip 720p, mvo [Чистый звук]

Dracon

3 | 5

3.75 ГБ

В этой теме нет новых непрочитанных сообщений. Вот так подружка / Una Donna per Amica (Джованни Веронези) [комедия, 2014] BDRip 1080p, mvo [Чистый звук]

Dracon

3 | 6

5.49 ГБ

В этой теме нет новых непрочитанных сообщений. Все в порядке, это любовь / Просто это любовь / Ничего страшного, это любовь / It's Okay It's Love [01-16 из 16](Ким Кю Тхэ)[2014, мелодрама, романтика, комедия, психология, HDTVRip 720р]

Nickolas3435

9 | 5

18.51 ГБ

В этой теме нет новых непрочитанных сообщений. Любовь и секс / Love & Sex [драма, мелодрама, комедия, 2000] DVDRip-AVC, Mvo+Sub

salma3

144 | 51

2.35 ГБ

В этой теме нет новых непрочитанных сообщений. Любовь и секс / Love & Sex [драма, мелодрама, комедия, 2000] DVDRip, Mvo

salma3

95 | 24

1.37 ГБ


Начать новую тему Ответить на тему  [ 1 сообщение ] 




Для Мосгорсуда, Роскомнадзора и рекламодателей:: mosgorsud-torrent[собачка]yandex.ru