Торрент файл
скачать торрент магнет ссылка Добавлен: 14 янв 2012, 23:19
Размер: 2.37 ГБ
Сидеров: 21
Личеров: 4
Автор

СообщениеДобавлено: 14 янв 2012, 23:19 

Не в сети
Супермодератор
Аватара пользователя
Дата регистрации:
11 апр 2010, 18:10
Спасибо: 5801 / 7
Сообщения: 56779
Женщина и мужчины / Ces amours-la

Перевод: Профессиональный (многоголосый, закадровый), cубтитры: отсутствуют
Формат: HDRip-AVC, MKV, H.264, AC3
Страна: Франция
Режиссер: Клод Лелуш
Жанр: драма
Продолжительность: 01:59:30
Год выпуска: 2010

В ролях: Одри Дана, Доминик Пинон, Рафаэль, Самюэль Лабарт, Джеки Идо, Жилль Лемар, Жюдит Магр, Лиан Фоли, Массимо Раньери

Описание: Главная героиня фильма, Ильва, вспоминает свою бурную молодость и всех мужчин, которых она когда-либо любила. В такт симфонической музыке перед ее глазами пролетают пять главных любовных романов жизни — все ее любимые мужчины были непохожими друг на друга, но каждый оставил неизгладимый след в ее судьбе. Ведь, в конечном итоге, возможно, не Бог создает женщину — возможно, женщина сама каждый раз создает себя заново, когда влюбляется.

[/field]

Видео: 1280x544 (2.35:1), 24.000 fps, AVC, х264, High@L4.1, ~ 2391 Kbps,0.143 bit/pixel
Аудио: 48 kHz, AC3 Dolby Digital, 3/2 (L,C,R,l,r) + LFE ch, ~448 kbps

Релиз группа:

General
Unique ID: 211698383196200011522739892223600936685 (0x9F43A0233B4E4E65AACC2F13B296C6ED)
Format: Matroska
File size: 2.37 GiB
Duration: 1h 59mn
Overall bit rate: 2 835 Kbps
Movie name: Rip by Tembr
Encoded date: UTC 2011-07-01 13:48:12
Writing application: mkvmerge v3.2.0 ('Beginnings') built on Feb 12 2010 16:46:17
Writing library: libebml v0.7.9 + libmatroska v0.8.1

Video
ID: 1
Format: AVC
Format/Info: Advanced Video Codec
Format profile: High@L4.1
Format settings, CABAC: Yes
Format settings, ReFrames: 2 frames
Codec ID: V_MPEG4/ISO/AVC
Duration: 1h 59mn
Bit rate mode: Variable
Bit rate: 2 391 Kbps
Maximum bit rate: 15.0 Mbps
Width: 1 280 pixels
Height: 544 pixels
Display aspect ratio: 2.35:1
Original display aspect ratio: 2.35:1
Frame rate: 24.000 fps
Color space: YUV
Chroma subsampling: 4:2:0
Bit depth: 8 bits
Scan type: Progressive
Bits/(Pixel*Frame): 0.143
Stream size: 1.95 GiB (82%)
Title: Женщина и мужчины.[NoLimits-Team.ru]
Writing library: x264 core 115 r1995 c1e60b9
Encoding settings: cabac=1 / ref=1 / deblock=1:0:0 / analyse=0x3:0x3 / me=dia / subme=1 / psy=1 / psy_rd=1.00:0.00 / mixed_ref=0 / me_range=16 / chroma_me=1 / trellis=0 / 8x8dct=1 / cqm=0 / deadzone=21,11 / fast_pskip=1 / chroma_qp_offset=0 / threads=3 / sliced_threads=0 / slices=4 / nr=0 / decimate=1 / interlaced=0 / bluray_compat=1 / constrained_intra=0 / bframes=3 / b_pyramid=0 / b_adapt=1 / b_bias=0 / direct=1 / weightb=1 / open_gop=0 / weightp=1 / keyint=24 / keyint_min=1 / scenecut=40 / intra_refresh=0 / rc_lookahead=0 / rc=abr / mbtree=0 / bitrate=2391 / ratetol=1.0 / qcomp=0.60 / qpmin=0 / qpmax=69 / qpstep=4 / vbv_maxrate=15000 / vbv_bufsize=15000 / nal_hrd=vbr / ip_ratio=1.10 / pb_ratio=1.10 / aq=1:1.00
Language: English

Audio
ID: 2
Format: AC-3
Format/Info: Audio Coding 3
Mode extension: CM (complete main)
Codec ID: A_AC3
Duration: 1h 59mn
Bit rate mode: Constant
Bit rate: 448 Kbps
Channel(s): 6 channels
Channel positions: Front: L C R, Side: L R, LFE
Sampling rate: 48.0 KHz
Bit depth: 16 bits
Compression mode: Lossy
Stream size: 383 MiB (16%)
Title: Профессиональное (многоголосое) [лицензия]
Language: Russian








Поделиться:




реклама партнёра


Вернуться к началу
 Профиль Отправить личное сообщение  
 
   Похожие торренты   Автор   Торрент   Размер 
В этой теме нет новых непрочитанных сообщений. Мужчина и женщина: способ применения / Hommes, femmes, mode d'emploi (Клод Лелуш / Claude Lelouch) [1996г., драма, комедия, DVDRip-AVC] MVO

Alfredovich

6 | 4

2.05 ГБ

В этой теме нет новых непрочитанных сообщений. Невидимая женщина / The Invisible Woman [драма, мелодрама, биография, 2013] HDRip, Mvo [iTunes]

Dracon

374 | 11

1.37 ГБ

В этой теме нет новых непрочитанных сообщений. Женщина в золотом / Woman in Gold (Саймон Кертис) [драма, 2015] HDRip, dvo [ColdFilm]

Dracon

13 | 0

1.36 ГБ

В этой теме нет новых непрочитанных сообщений. Мужчина и женщина / A Man and A Woman (Ли Юн-ги / Lee Yoon Ki) [2016г., Южная Корея, драма, мелодрама, HDRip] DVO

Alfredovich

17 | 5

1.42 ГБ

В этой теме нет новых непрочитанных сообщений. Невидимая женщина / The Invisible Woman (Рэйф Файнс) [драма, мелодрама, биография, история, 2013] HDRip, Mvo

Dracon

6 | 2

2.04 ГБ

В этой теме нет новых непрочитанных сообщений. Мужчины, женщины и дети / Men, Women & Children (Джейсон Рейтмен) [драма, комедия, 2014] HDRip, Dub [iTunes]

Dracon

2 | 3

1.46 ГБ

В этой теме нет новых непрочитанных сообщений. Мужчины, женщины и дети / Men, Women & Children (Джейсон Рейтмен) [драма, комедия, 2014] HDRip [Gears Media]

Dracon

5 | 3

1.37 ГБ


Начать новую тему Ответить на тему  [ 1 сообщение ] 




Для Мосгорсуда, Роскомнадзора и рекламодателей:: mosgorsud-torrent[собачка]yandex.ru