Торрент файл
скачать торрент магнет ссылка Добавлен: 14 янв 2012, 23:17
Размер: 1.45 ГБ
Сидеров: 18
Личеров: 5
Автор

СообщениеДобавлено: 14 янв 2012, 23:17 

Не в сети
Супермодератор
Аватара пользователя
Дата регистрации:
11 апр 2010, 18:10
Спасибо: 5801 / 7
Сообщения: 56779
Женщина и мужчины / Ces amours-la


Перевод: Профессиональный (многоголосый, закадровый), cубтитры: отсутствуют
Формат: DVDRip-AVC, MKV, H.264, AC3
Страна: Франция
Режиссер: Клод Лелуш
Жанр: драма
Продолжительность: 01:54:40
Год выпуска: 2010

В ролях: Одри Дана, Доминик Пинон, Рафаэль, Самюэль Лабарт, Джеки Идо, Жилль Лемар, Жюдит Магр, Лиан Фоли, Массимо Раньери

Описание: Главная героиня фильма, Ильва, вспоминает свою бурную молодость и всех мужчин, которых она когда-либо любила. В такт симфонической музыке перед ее глазами пролетают пять главных любовных романов жизни — все ее любимые мужчины были непохожими друг на друга, но каждый оставил неизгладимый след в ее судьбе. Ведь, в конечном итоге, возможно, не Бог создает женщину — возможно, женщина сама каждый раз создает себя заново, когда влюбляется

[/field]

Видео: 720 x 304 (2.35:1), 25.000 fps, AVC, х264, High@L4.1, ~ 1621 Kbps, 0.296 bit/pixel
Аудио: 48 kHz, AC3 Dolby Digital, 2/0 (L,R) ch, ~192.00 kbps avg


Рип: jeenart

General
Unique ID: 248698228370619143040729702831657743349 (0xBB198958F2ED822FA9E01A76168E73F5)
Complete name: F:\Мои релизы\Все релизы 10\zhenwina_i_muzhchini_[tfile.ru].mkv
Format: Matroska
File size: 1.45 GiB
Duration: 1h 54mn
Overall bit rate: 1 815 Kbps
Encoded date: UTC 2011-07-07 13:02:44
Writing application: mkvmerge v4.6.0 ('Still Crazy After All These Years') сборка от Apr1 2011 21:01:49
Writing library: libebml v1.2.0 + libmatroska v1.1.0

Video
ID: 1
Format: AVC
Format/Info: Advanced Video Codec
Format profile: High@L4.1
Format settings, CABAC: Yes
Format settings, ReFrames: 3 frames
Codec ID: V_MPEG4/ISO/AVC
Duration: 1h 54mn
Bit rate: 1 621 Kbps
Width: 720 pixels
Height: 304 pixels
Display aspect ratio: 2.35:1
Frame rate: 25.000 fps
Color space: YUV
Chroma subsampling: 4:2:0
Bit depth: 8 bits
Scan type: Progressive
Bits/(Pixel*Frame): 0.296
Stream size: 1.27 GiB (87%)
Writing library: x264 core 115 r1937 aa21558
Encoding settings: cabac=1 / ref=3 / deblock=1:-1:-1 / analyse=0x3:0x113 / me=dia / subme=7 / psy=1 / psy_rd=1.00:0.10 / mixed_ref=1 / me_range=16 / chroma_me=1 / trellis=1 / 8x8dct=1 / cqm=0 / deadzone=21,11 / fast_pskip=1 / chroma_qp_offset=-3 / threads=6 / sliced_threads=0 / nr=0 / decimate=1 / interlaced=0 / bluray_compat=0 / constrained_intra=0 / bframes=1 / b_pyramid=0 / b_adapt=0 / b_bias=0 / direct=0 / weightb=1 / open_gop=0 / weightp=0 / keyint=250 / keyint_min=25 / scenecut=40 / intra_refresh=0 / rc_lookahead=40 / rc=2pass / mbtree=1 / bitrate=1621 / ratetol=1.0 / qcomp=0.60 / qpmin=0 / qpmax=69 / qpstep=4 / cplxblur=20.0 / qblur=0.5 / ip_ratio=1.40 / aq=1:1.00

Audio
ID: 2
Format: AC-3
Format/Info: Audio Coding 3
Mode extension: CM (complete main)
Codec ID: A_AC3
Duration: 1h 54mn
Bit rate mode: Constant
Bit rate: 192 Kbps
Channel(s): 6 channels
Channel positions: Front: L C R, Side: L R, LFE
Sampling rate: 48.0 KHz
Bit depth: 16 bits
Compression mode: Lossy
Stream size: 157 MiB (11%)






















Поделиться:




реклама партнёра


Вернуться к началу
 Профиль Отправить личное сообщение  
 
   Похожие торренты   Автор   Торрент   Размер 
В этой теме нет новых непрочитанных сообщений. Мужчина и женщина: способ применения / Hommes, femmes, mode d'emploi (Клод Лелуш / Claude Lelouch) [1996г., драма, комедия, DVDRip-AVC] MVO

Alfredovich

6 | 4

2.05 ГБ

В этой теме нет новых непрочитанных сообщений. Другая женщина / Another woman [драма, 1988] DVDRip, Mvo

salma3

52 | 2

1.37 ГБ

В этой теме нет новых непрочитанных сообщений. Двое / Deux (Клод Зиди / Claude Zidi) [1989г., мелодрама, драма, DVDRip] MVO

Alfredovich

6 | 3

1.46 ГБ

В этой теме нет новых непрочитанных сообщений. Женщина в золотом / Woman in Gold [драма, 2015] DVDRip, Sub

slawa4155

749 | 57

1.39 ГБ

В этой теме нет новых непрочитанных сообщений. Женщина во дворе / Dans la cour [драма, мелодрама, 2014] DVDRip, Mvo

salma3

66 | 3

1.37 ГБ

В этой теме нет новых непрочитанных сообщений. Экс-женщина моей жизни / L'ex-femme de ma vie [Драма, комедия, 2004] DVDRip, Mvo

salma3

14 | 2

1.45 ГБ

В этой теме нет новых непрочитанных сообщений. Вечеринка удовольствий / Une partie de plaisir (Клод Шаброль / Claude Chabrol) [1975г., арт-хаус, драма, DVDRip] MVO

Alfredovich

76 | 11

1.37 ГБ


Начать новую тему Ответить на тему  [ 1 сообщение ] 




Для Мосгорсуда, Роскомнадзора и рекламодателей:: mosgorsud-torrent[собачка]yandex.ru