Торрент файл
скачать торрент магнет ссылка Добавлен: 14 янв 2012, 23:16
Размер: 1.45 ГБ
Сидеров: 2
Личеров: 4
Автор

СообщениеДобавлено: 14 янв 2012, 23:16 

Не в сети
Супермодератор
Аватара пользователя
Дата регистрации:
11 апр 2010, 18:10
Спасибо: 5801 / 7
Сообщения: 56779
Жар / Медленный огонь / Slow Burn


Перевод: Любительский (двухголосый), cубтитры: отсутствуют
Формат: DVDRip-AVC, MKV, H.264, AC3
Страна: США
Режиссер: Мэтью Чэпмен
Жанр: драма
Продолжительность: 01:31:12
Год выпуска: 1986

В ролях: Эрик Робертс, Беверли Д`Анджело, Деннис Липском, Рэймонд Дж. Бэрри, Энн Шедин, Эмили Лонгстрет, Джонни Депп, Генри Гибсон, Дэн Хедайя, Фрэнк Шуллер

Описание: Бывший журналист, а теперь частный детектив получает задание найти бывшую жену и сына известного художника. Найти женщину и ее сына оказывается не так уж сложно, но вскоре ситуация осложняется, и в деле появляется труп…



Видео: 720 x 400 (1.80:1), 25.000 fps, AVC, х264, High@L4.1, ~ 2088 Kbps, 0.290 bit/pixel
Аудио: 48 kHz, AC3 Dolby Digital, 3/2 (L,C,R,l,r) + LFE ch, ~192.00 kbps avg


Рип: jeenart

General
Unique ID: 183241417048652588717801542433089976878 (0x89DB0362081D41C59C116A4D934EFA2E)
Complete name: F:\Мои релизы\Все релизы 10\medlennii_ogon_[tfile.ru].mkv
Format: Matroska
File size: 1.45 GiB
Duration: 1h 31mn
Overall bit rate: 2 281 Kbps
Encoded date: UTC 2011-07-08 08:53:40
Writing application: mkvmerge v4.6.0 ('Still Crazy After All These Years') сборка от Apr1 2011 21:01:49
Writing library: libebml v1.2.0 + libmatroska v1.1.0

Video
ID: 1
Format: AVC
Format/Info: Advanced Video Codec
Format profile: High@L4.1
Format settings, CABAC: Yes
Format settings, ReFrames: 3 frames
Codec ID: V_MPEG4/ISO/AVC
Duration: 1h 31mn
Bit rate: 2 088 Kbps
Width: 720 pixels
Height: 400 pixels
Display aspect ratio: 16:9
Frame rate: 25.000 fps
Color space: YUV
Chroma subsampling: 4:2:0
Bit depth: 8 bits
Scan type: Progressive
Bits/(Pixel*Frame): 0.290
Stream size: 1.30 GiB (90%)
Writing library: x264 core 115 r1937 aa21558
Encoding settings: cabac=1 / ref=3 / deblock=1:-1:-1 / analyse=0x3:0x113 / me=dia / subme=7 / psy=1 / psy_rd=1.00:0.10 / mixed_ref=1 / me_range=16 / chroma_me=1 / trellis=1 / 8x8dct=1 / cqm=0 / deadzone=21,11 / fast_pskip=1 / chroma_qp_offset=-3 / threads=6 / sliced_threads=0 / nr=0 / decimate=1 / interlaced=0 / bluray_compat=0 / constrained_intra=0 / bframes=1 / b_pyramid=0 / b_adapt=0 / b_bias=0 / direct=0 / weightb=1 / open_gop=0 / weightp=0 / keyint=250 / keyint_min=25 / scenecut=40 / intra_refresh=0 / rc_lookahead=40 / rc=2pass / mbtree=1 / bitrate=2088 / ratetol=1.0 / qcomp=0.60 / qpmin=0 / qpmax=69 / qpstep=4 / cplxblur=20.0 / qblur=0.5 / ip_ratio=1.40 / aq=1:1.00

Audio
ID: 2
Format: AC-3
Format/Info: Audio Coding 3
Mode extension: CM (complete main)
Codec ID: A_AC3
Duration: 1h 31mn
Bit rate mode: Constant
Bit rate: 192 Kbps
Channel(s): 6 channels
Channel positions: Front: L C R, Side: L R, LFE
Sampling rate: 48.0 KHz
Bit depth: 16 bits
Compression mode: Lossy
Stream size: 125 MiB (8%)























Поделиться:




реклама партнёра


Вернуться к началу
 Профиль Отправить личное сообщение  
 
   Похожие торренты   Автор   Торрент   Размер 
В этой теме нет новых непрочитанных сообщений. Медленный Запад / Slow West (Джон Маклин) [боевик, триллер, вестерн, 2015] DVD5, Avo

Dracon

123 | 19

4.11 ГБ

В этой теме нет новых непрочитанных сообщений. Медленный Запад / Slow West (Джон Маклин) [боевик, триллер, вестерн, 2015] BDRip 1080p, Avo+dvo+Sub

Dracon

35 | 7

7.87 ГБ

В этой теме нет новых непрочитанных сообщений. Медленный Запад / Slow West (Джон Маклин) [боевик, триллер, вестерн, 2015] HDRip [ColdFilm]

Dracon

0 | 0

1.37 ГБ

В этой теме нет новых непрочитанных сообщений. Строго на запад / Медленный Запад / Slow West [Боевик, триллер, вестерн, 2015] HDRip, Dub [iTunes]

Dracon

197 | 4

1.37 ГБ

В этой теме нет новых непрочитанных сообщений. Строго на запад / Медленный Запад / Slow West [Боевик, триллер, вестерн, 2015] BDRip 720p, Dub+Avo+Sub [Лицензия]

Dracon

237 | 52

6.88 ГБ

В этой теме нет новых непрочитанных сообщений. Burn River Burn - Burn River Burn [2011, Stoner Rock, MP3]

PriZraK

1 | 1

98.46 МБ

В этой теме нет новых непрочитанных сообщений. Вечность / Forever [s01x01] (Мэтью Миллер) [2014, Мэтью Миллер, HDTVRip | Гараж Дубляж]

Nickolas3435

87 | 14

379.75 МБ


Начать новую тему Ответить на тему  [ 1 сообщение ] 




Для Мосгорсуда, Роскомнадзора и рекламодателей:: mosgorsud-torrent[собачка]yandex.ru