Торрент файл
скачать торрент магнет ссылка Добавлен: 14 янв 2012, 23:16
Размер: 1.45 ГБ
Сидеров: 0
Личеров: 4
Автор

СообщениеДобавлено: 14 янв 2012, 23:16 

Не в сети
Супермодератор
Аватара пользователя
Дата регистрации:
11 апр 2010, 18:10
Спасибо: 5801 / 7
Сообщения: 56779
Как одуванчики / Like Dandelion Dust



Перевод: Профессиональный (одноголосый), cубтитры: отсутствуют
Формат: HDRip-AVC, MKV, H.264, AC3
Страна: США
Режиссер: Джон Ганн
Жанр: драма, семейный
Продолжительность: 01:44:20
Год выпуска: 2009

В ролях: Мира Сорвино, Бэрри Пеппер, Коул Хаузер, Кейт Леверинг, Максвелл Перри Коттон, Л. Скотт Колдуэлл, Эбби Браммелл, Кирк Б.Р. Уоллер, Бретт Райс, Брук Брайан

Описание: Джо живет на побережье во Флориде в семейной идилли. В один прекрасный день раздается телефонный звонок, который практически лишает Джо любимого дома. Начинать новую жизнь — что может быть сложней?...



Видео: 1024 x 576 (1.78:1), 23.976 fps, AVC, х264, High@L4.1, ~ 1801 Kbps, 0.127 bit/pixel
Аудио: 48 kHz, AC3 Dolby Digital, 3/2 (L,C,R,l,r) + LFE ch, ~192.00 kbps avg


Рип: jeenart

General
Unique ID: 228845584331588050330436677701922426648 (0xAC2A0E6CFC828E49AD05417B6E938F1
Complete name: F:\Мои релизы\Все релизы 10\kak_oduvanciki_[tfile.ru].mkv
Format: Matroska
File size: 1.45 GiB
Duration: 1h 44mn
Overall bit rate: 1 991 Kbps
Encoded date: UTC 2011-07-09 02:43:27
Writing application: mkvmerge v4.6.0 ('Still Crazy After All These Years') сборка от Apr1 2011 21:01:49
Writing library: libebml v1.2.0 + libmatroska v1.1.0

Video
ID: 1
Format: AVC
Format/Info: Advanced Video Codec
Format profile: High@L4.1
Format settings, CABAC: Yes
Format settings, ReFrames: 3 frames
Codec ID: V_MPEG4/ISO/AVC
Duration: 1h 44mn
Bit rate: 1 801 Kbps
Width: 1 024 pixels
Height: 576 pixels
Display aspect ratio: 16:9
Frame rate: 23.976 fps
Color space: YUV
Chroma subsampling: 4:2:0
Bit depth: 8 bits
Scan type: Progressive
Bits/(Pixel*Frame): 0.127
Stream size: 1.28 GiB (88%)
Writing library: x264 core 115 r1937 aa21558
Encoding settings: cabac=1 / ref=3 / deblock=1:-1:-1 / analyse=0x3:0x113 / me=dia / subme=7 / psy=1 / psy_rd=1.00:0.10 / mixed_ref=1 / me_range=16 / chroma_me=1 / trellis=1 / 8x8dct=1 / cqm=0 / deadzone=21,11 / fast_pskip=1 / chroma_qp_offset=-3 / threads=6 / sliced_threads=0 / nr=0 / decimate=1 / interlaced=0 / bluray_compat=0 / constrained_intra=0 / bframes=1 / b_pyramid=0 / b_adapt=0 / b_bias=0 / direct=0 / weightb=1 / open_gop=0 / weightp=0 / keyint=250 / keyint_min=23 / scenecut=40 / intra_refresh=0 / rc_lookahead=40 / rc=2pass / mbtree=1 / bitrate=1801 / ratetol=1.0 / qcomp=0.60 / qpmin=0 / qpmax=69 / qpstep=4 / cplxblur=20.0 / qblur=0.5 / ip_ratio=1.40 / aq=1:1.00

Audio
ID: 2
Format: AC-3
Format/Info: Audio Coding 3
Mode extension: CM (complete main)
Codec ID: A_AC3
Duration: 1h 44mn
Bit rate mode: Constant
Bit rate: 192 Kbps
Channel(s): 6 channels
Channel positions: Front: L C R, Side: L R, LFE
Sampling rate: 48.0 KHz
Bit depth: 16 bits
Compression mode: Lossy
Stream size: 143 MiB (10%)
























Поделиться:




реклама партнёра


Вернуться к началу
 Профиль Отправить личное сообщение  
 
   Похожие торренты   Автор   Торрент   Размер 
В этой теме нет новых непрочитанных сообщений. Ты веришь? / Do You Believe? (Джон Ганн) [драма, 2015] HDRip, dvo

Dracon

409 | 32

1.37 ГБ

В этой теме нет новых непрочитанных сообщений. Dust - Hard Attack / Dust [2013, Progresssive Rock, MP3]

PriZraK

0 | 1

218.52 МБ

В этой теме нет новых непрочитанных сообщений. Dust - Dust [1971, Hard Rock, MP3]

PriZraK

0 | 1

98.58 МБ

В этой теме нет новых непрочитанных сообщений. Бен Ганн - Who is Бах? [2011, Punk,Alternative,Rock, MP3]

PriZraK

0 | 1

84.27 МБ

В этой теме нет новых непрочитанных сообщений. Переправа / The Crossing (Джон Ву) [Драма, история, 2014] HDRip, Dub [Itunes]

Dracon

4424 | 98

2.05 ГБ

В этой теме нет новых непрочитанных сообщений. Малыш-каннабис / Kid Cannabis (Джон Стокуэлл) [2014, драма, криминал, HDRip] avo

Nickolas3435

665 | 35

2.06 ГБ

В этой теме нет новых непрочитанных сообщений. Голгофа / Calvary (Джон Майкл МакДона) [2014, Драма, комедия, HDRip | Лицензия] mvo

Nickolas3435

1015 | 18

2.05 ГБ


Начать новую тему Ответить на тему  [ 1 сообщение ] 




Для Мосгорсуда, Роскомнадзора и рекламодателей:: mosgorsud-torrent[собачка]yandex.ru