Торрент файл
скачать торрент магнет ссылка Добавлен: 14 янв 2012, 23:14
Размер: 1.45 ГБ
Сидеров: 1
Личеров: 3
Автор

СообщениеДобавлено: 14 янв 2012, 23:14 

Не в сети
Супермодератор
Аватара пользователя
Дата регистрации:
11 апр 2010, 18:10
Спасибо: 5802 / 7
Сообщения: 56779
Самый лучший папа / World's Greatest Dad


Перевод: Профессиональный (двухголосый), cубтитры: отсутствуют
Формат: HDRip-AVC, MKV, H.264, AC3
Страна: США
Режиссер: Боб Голдтуэйт
Жанр: драма, комедия
Продолжительность: 01:38:41
Год выпуска: 2009

В ролях: Робин Уильямс, Дэрил Сабара, Алекси Гилмор, Том Кенни, Джеффри Пирсон, Генри Симмонс, Тоби Хасс, Стив Андерсон, Даниэль Барнум, Хайди Баррьентес

Описание: Не состоявшийся писатель Лэнс Клейтон, зарабатывающий преподаванием поэзии в средней школе, самый настоящий неудачник. Помимо нереализованных амбиций, у него проблемы с с собственным сыном Кайлом, который является трудным подростком, и думает больше всего об удовлетворении своих сексуальных желаний. Больше всего Лэнсу хочется добиться уважения к себе и перестать чувствовать себя никчемным существом. Для этого он придумывает гениальную комбинацию с использованием имени своего сына, однако после того, как слава обрушивается на писателя, он понимает, что она обременяет его гораздо больше, чем одиночество.

[/field]

Видео: 1072 x 576 (1.86:1), 23.976 fps, AVC, х264, High@L4.1, ~ 1851 Kbps, 0.125 bit/pixel
Аудио: 48 kHz, AC3 Dolby Digital, 3/2 (L,C,R,l,r) + LFE ch, ~256 kbps


Рип: jeenart
General
Unique ID: 203028923002497441670381333680142338184 (0x98BDF2BFC5D35315A5A5052EEC1EC88
Complete name: F:\Мои релизы\Все релизы 10\samyj_luchshij_papa_[tfile.ru].mkv
Format: Matroska
File size: 1.45 GiB
Duration: 1h 38mn
Overall bit rate: 2 107 Kbps
Encoded date: UTC 2011-07-10 12:20:58
Writing application: mkvmerge v4.6.0 ('Still Crazy After All These Years') сборка от Apr1 2011 21:01:49
Writing library: libebml v1.2.0 + libmatroska v1.1.0

Video
ID: 1
Format: AVC
Format/Info: Advanced Video Codec
Format profile: High@L4.1
Format settings, CABAC: Yes
Format settings, ReFrames: 3 frames
Codec ID: V_MPEG4/ISO/AVC
Duration: 1h 38mn
Bit rate: 1 851 Kbps
Width: 1 072 pixels
Height: 576 pixels
Display aspect ratio: 1.861
Frame rate: 23.976 fps
Color space: YUV
Chroma subsampling: 4:2:0
Bit depth: 8 bits
Scan type: Progressive
Bits/(Pixel*Frame): 0.125
Stream size: 1.25 GiB (86%)
Writing library: x264 core 115 r1937 aa21558
Encoding settings: cabac=1 / ref=3 / deblock=1:-1:-1 / analyse=0x3:0x113 / me=dia / subme=7 / psy=1 / psy_rd=1.00:0.10 / mixed_ref=1 / me_range=16 / chroma_me=1 / trellis=1 / 8x8dct=1 / cqm=0 / deadzone=21,11 / fast_pskip=1 / chroma_qp_offset=-3 / threads=6 / sliced_threads=0 / nr=0 / decimate=1 / interlaced=0 / bluray_compat=0 / constrained_intra=0 / bframes=1 / b_pyramid=0 / b_adapt=0 / b_bias=0 / direct=0 / weightb=1 / open_gop=0 / weightp=0 / keyint=250 / keyint_min=23 / scenecut=40 / intra_refresh=0 / rc_lookahead=40 / rc=2pass / mbtree=1 / bitrate=1851 / ratetol=1.0 / qcomp=0.60 / qpmin=0 / qpmax=69 / qpstep=4 / cplxblur=20.0 / qblur=0.5 / ip_ratio=1.40 / aq=1:1.00

Audio
ID: 2
Format: AC-3
Format/Info: Audio Coding 3
Mode extension: CM (complete main)
Codec ID: A_AC3
Duration: 1h 38mn
Bit rate mode: Constant
Bit rate: 256 Kbps
Channel(s): 6 channels
Channel positions: Front: L C R, Side: L R, LFE
Sampling rate: 48.0 KHz
Bit depth: 16 bits
Compression mode: Lossy
Stream size: 181 MiB (12%)




















Поделиться:




реклама партнёра


Вернуться к началу
 Профиль Отправить личное сообщение  
 
   Похожие торренты   Автор   Торрент   Размер 
В этой теме нет новых непрочитанных сообщений. Самый лучший папа / World's Greatest Dad [драма, комедия, 2009] HDRip, Mvo

salma3

27 | 5

1.45 ГБ

В этой теме нет новых непрочитанных сообщений. Величайший любовник в мире / The World's Greatest Lover [комедия, 1977] DVDRip, Mvo

salma3

9 | 8

1.46 ГБ

В этой теме нет новых непрочитанных сообщений. Папа – робот / Кибернетический папа / And You Thought Your Parents Were Weird [Фантастическая комедия, 1991] VHSRip, Avo

salma3

13 | 2

1.38 ГБ

В этой теме нет новых непрочитанных сообщений. Здравствуй, папа, Новый год / Daddy's Home [Комедия, 2015] HDRip, dub [чистый звук]

Dracon

6243 | 60

1.37 ГБ

В этой теме нет новых непрочитанных сообщений. Обыкновенный мир / Ordinary World [драма, комедия, музыка, 2016] HDRip, Mvo

salma3

30 | 16

699.69 МБ

В этой теме нет новых непрочитанных сообщений. Обыкновенный мир / Ordinary World [драма, комедия, музыка, 2016] HDRip, Mvo

salma3

349 | 68

1.37 ГБ

В этой теме нет новых непрочитанных сообщений. Здравствуй, папа / Buongiorno papa [комедия, драма, 2013] DVDRip, Avo

salma3

370 | 9

1.37 ГБ


Начать новую тему Ответить на тему  [ 1 сообщение ] 




Для Мосгорсуда, Роскомнадзора и рекламодателей:: mosgorsud-torrent[собачка]yandex.ru