Торрент файл
скачать торрент магнет ссылка Добавлен: 14 янв 2012, 23:12
Размер: 1.46 ГБ
Сидеров: 63
Личеров: 8
Автор

СообщениеДобавлено: 14 янв 2012, 23:12 

Не в сети
Супермодератор
Аватара пользователя
Дата регистрации:
11 апр 2010, 18:10
Спасибо: 5801 / 7
Сообщения: 56779
Голова в облаках / Head in the Clouds

Перевод: Профессиональный (полное дублирование), cубтитры: отсутствуют
Формат: HDRip, AVI, XviD, AC3
Страна: Канада, Великобритания
Режиссер: Джон Дайган
Жанр: драма, мелодрама, военный
Продолжительность: 01:59:15
Год выпуска: 2004

В ролях: Шарлиз Терон, Пенелопа Крус, Стюарт Таунсенд, Томас Кретшманн, Аллен Олтман, Давид Ла Эй, Рашель Лефевр, Энди Маккензи, Эми Слоун, Харальд Уинтер

Описание: Впервые ирландский парень Гай увидел Джильду Бесси в весьма эксцентрической ситуации, когда учился в университете. Потом они расстались, потом вновь встретились… И судьба не единожды сводила — разводила Гая и Джильду — как в разгульные 1930-е, так и в тревожные предвоенные, и в трагические военные годы. Богатая и избалованная Джильда вела достаточно свободный образ жизни, благодаря чему Гай познакомился со многими людьми ее круга. Однажды он увидел рядом с Джильдой испанку Мию…

[/field]



Видео: 720x304 (2.37:1), 24.000 fps, XviD build 50 ~1296 kbps avg, 0.25 bit/pixel
Аудио: 48 kHz, AC3 Dolby Digital, 3/2 (L,C,R,l,r) + LFE ch, ~448.00 kbps avg

4 приза «Гений» в Канаде — за операторскую работу, музыку, костюмы (Марио Давиньон / Mario Davignon) и монтаж (Доминик Фортен / Dominique Fortin).

Премия Миланского МКФ за лучший фильм.


General
Complete name: E:\Загрузки\Golova.v.oblakah.2004.avi
Format: AVI
Format/Info: Audio Video Interleave
File size: 1.46 GiB
Duration: 1h 59mn
Overall bit rate: 1 754 Kbps
Director: zim2001
Writing application: VirtualDubMod 1.5.10.2 (build 2540/release)

Video
ID: 0
Format: MPEG-4 Visual
Format profile: Advanced Simple@L5
Format settings, BVOP: 2
Format settings, QPel: No
Format settings, GMC: No warppoints
Format settings, Matrix: Custom
Codec ID: XVID
Codec ID/Hint: XviD
Duration: 1h 59mn
Bit rate: 1 297 Kbps
Width: 720 pixels
Height: 304 pixels
Display aspect ratio: 2.35:1
Frame rate: 24.000 fps
Color space: YUV
Chroma subsampling: 4:2:0
Bit depth: 8 bits
Scan type: Progressive
Compression mode: Lossy
Bits/(Pixel*Frame): 0.247
Stream size: 1.08 GiB (74%)
Writing library: XviD 1.2.1 (UTC 2008-12-04)

Audio
ID: 1
Format: AC-3
Format/Info: Audio Coding 3
Mode extension: CM (complete main)
Codec ID: 2000
Duration: 1h 59mn
Bit rate mode: Constant
Bit rate: 448 Kbps
Channel(s): 6 channels
Channel positions: Front: L C R, Side: L R, LFE
Sampling rate: 48.0 KHz
Bit depth: 16 bits
Compression mode: Lossy
Stream size: 382 MiB (26%)
Alignment: Split accross interleaves
Interleave, duration: 42 ms (1.00 video frame)
Interleave, preload duration: 500 ms







Поделиться:




реклама партнёра


Вернуться к началу
 Профиль Отправить личное сообщение  
 
   Похожие торренты   Автор   Торрент   Размер 
В этой теме нет новых непрочитанных сообщений. Голова в облаках / Head in the Clouds [драма, мелодрама, военный, 2003] BDRip 720p, Dub+Sub [Лицензия]

salma3

100 | 5

4.36 ГБ

В этой теме нет новых непрочитанных сообщений. Арийская пара / The Aryan Couple (Джон Дэйли / John Daly) [2004г., драма, военный, HDRip] mvo

Alfredovich

8 | 0

2.05 ГБ

В этой теме нет новых непрочитанных сообщений. Колетт / Colette [драма, мелодрама, военный, история, 2013] HDRip, avo

Dracon

221 | 13

2.19 ГБ

В этой теме нет новых непрочитанных сообщений. За гранью / Beyond Borders [драма, мелодрама, приключения, военный, 2003] HDRip, Mvo

salma3

75 | 6

1.45 ГБ

В этой теме нет новых непрочитанных сообщений. Легионеры / Иди вперед или умри / March or Die [драма, мелодрама, приключения, военный, 1977] HDRip, Mvo+Dvo

salma3

101 | 16

1.45 ГБ

В этой теме нет новых непрочитанных сообщений. Фокус / Focus (Гленн Фикарра, Джон Рекуа) [драма, мелодрама, комедия, криминал, 2015] HDRip, Dub [iTunes]

Dracon

5 | 0

1.37 ГБ

В этой теме нет новых непрочитанных сообщений. Тихая гора / The Silent Mountain [драма, мелодрама, приключения, военный, 2014] HDRip [ИндивИдуалист]

Dracon

581 | 27

1.4 ГБ


Начать новую тему Ответить на тему  [ 1 сообщение ] 




Для Мосгорсуда, Роскомнадзора и рекламодателей:: mosgorsud-torrent[собачка]yandex.ru