Торрент файл
скачать торрент магнет ссылка Добавлен: 14 янв 2012, 23:12
Размер: 1.46 ГБ
Сидеров: 5
Личеров: 4
Автор

СообщениеДобавлено: 14 янв 2012, 23:12 

Не в сети
Супермодератор
Аватара пользователя
Дата регистрации:
11 апр 2010, 18:10
Спасибо: 5801 / 7
Сообщения: 56779
Гран Торино / Gran Torino


Перевод: Профессиональный (двухголосый), cубтитры: отсутствуют
Формат: HDRip-AVC, MKV, H.264, AC3
Страна: США, Германия
Режиссер: Клинт Иствуд
Жанр: драма
Продолжительность: 01:56:34
Год выпуска: 2008

В ролях: Клинт Иствуд, Кристофер Карли, Би Ванг, Эни Хи, Брайан Хейли, Джеральдин Хьюз, Дрима Уолкер, Брайан Хау, Джон Кэрролл Линч, Уильям Хилл

Описание: Вышедший на пенсию автомеханик Уолт Ковальски проводит дни, починяя что-то по дому, попивая пиво и раз в месяц заходя к парикмахеру. И хотя последним желанием его недавно почившей жены было совершение им исповеди, Уолту — ожесточившемуся ветерану Корейской войны, всегда держащему свою винтовку наготове, — признаваться в общем-то не в чем. Да и нет того, кому он доверял бы в той полной мере, в какой доверяет своей собаке Дейзи.
Все те люди, коих он некогда называл своими соседями, либо переехали, либо ушли в мир иной, а на смену им пришли иммигранты-моны, которых он откровенно презирает. Противясь буквально всему, во что упирается его взгляд, — покосившиеся карнизы, заросшие лужайки домов и лица иностранцев повсюду; бесцельно шатающиеся шайки подростков, состоящие из хмонов, латиносов и афро-американцев, полагающих, что окрестный мир целиком принадлежит им одним; неоперившиеся чужаки, в которых оказалось превратились собственные дети и внуки, — Уолт просто неспешно проживает остаток своей жизни.
До той самой ночи, когда кто-то попытается украсть его «Гран Торино»…




Видео: 960 x 400 (2.40:1), 23.976 fps, AVC, х264, High@L4.1, ~ 1401 Kbps, 0.152 bit/pixel
Аудио: 48 kHz, AC3 Dolby Digital, 3/2 (L,C,R,l,r) + LFE ch, ~384 kbps


Рип: jeenart

Toп250: #62

General
Unique ID: 170540849114041871211490798426647969682 (0x804CF909BF8A9F40890919A157783F92)
Complete name: F:\Мои релизы\Все релизы 10\gran_torino_[tfile.ru].mkv
Format: Matroska
File size: 1.46 GiB
Duration: 1h 56mn
Overall bit rate: 1 787 Kbps
Encoded date: UTC 2011-07-16 18:27:52
Writing application: mkvmerge v4.6.0 ('Still Crazy After All These Years') сборка от Apr1 2011 21:01:49
Writing library: libebml v1.2.0 + libmatroska v1.1.0

Video
ID: 1
Format: AVC
Format/Info: Advanced Video Codec
Format profile: High@L4.1
Format settings, CABAC: Yes
Format settings, ReFrames: 8 frames
Codec ID: V_MPEG4/ISO/AVC
Duration: 1h 56mn
Bit rate: 1 401 Kbps
Width: 960 pixels
Height: 400 pixels
Display aspect ratio: 2.40:1
Frame rate: 23.976 fps
Color space: YUV
Chroma subsampling: 4:2:0
Bit depth: 8 bits
Scan type: Progressive
Bits/(Pixel*Frame): 0.152
Stream size: 1.11 GiB (77%)
Writing library: x264 core 115 r1937 aa21558
Encoding settings: cabac=1 / ref=8 / deblock=1:-1:-1 / analyse=0x3:0x133 / me=umh / subme=9 / psy=1 / psy_rd=1.00:0.10 / mixed_ref=1 / me_range=16 / chroma_me=1 / trellis=2 / 8x8dct=1 / cqm=0 / deadzone=21,11 / fast_pskip=1 / chroma_qp_offset=-3 / threads=6 / sliced_threads=0 / nr=0 / decimate=1 / interlaced=0 / bluray_compat=0 / constrained_intra=0 / bframes=3 / b_pyramid=2 / b_adapt=2 / b_bias=0 / direct=3 / weightb=1 / open_gop=0 / weightp=2 / keyint=250 / keyint_min=23 / scenecut=40 / intra_refresh=0 / rc_lookahead=60 / rc=2pass / mbtree=1 / bitrate=1401 / ratetol=1.0 / qcomp=0.60 / qpmin=0 / qpmax=69 / qpstep=4 / cplxblur=20.0 / qblur=0.5 / ip_ratio=1.40 / aq=1:1.00

Audio
ID: 2
Format: AC-3
Format/Info: Audio Coding 3
Mode extension: CM (complete main)
Codec ID: A_AC3
Duration: 1h 56mn
Bit rate mode: Constant
Bit rate: 384 Kbps
Channel(s): 6 channels
Channel positions: Front: L C R, Side: L R, LFE
Sampling rate: 48.0 KHz
Bit depth: 16 bits
Compression mode: Lossy
Stream size: 320 MiB (21%)
























Поделиться:




реклама партнёра


Вернуться к началу
 Профиль Отправить личное сообщение  
 
   Похожие торренты   Автор   Торрент   Размер 
В этой теме нет новых непрочитанных сообщений. Парни из Джерси / Jersey Boys (Клинт Иствуд) [2014, драма, биография, музыка, HDRip] mvo

Nickolas3435

838 | 27

1.46 ГБ

В этой теме нет новых непрочитанных сообщений. Снайпер / American Sniper (Клинт Иствуд) [боевик, драма, военный, биография, 2014] HDRip, Dub [iTunes]

Dracon

5 | 1

1.37 ГБ

В этой теме нет новых непрочитанных сообщений. Gran Torino - Fate Of A Thousand Worlds [2013, Progressive Rock, MP3]

PriZraK

0 | 1

124.27 МБ

В этой теме нет новых непрочитанных сообщений. Снайпер / American Sniper (Клинт Иствуд) [боевик, драма, военный, биография, 2014] DVDScr, dvo

Dracon

3325 | 141

1.46 ГБ

В этой теме нет новых непрочитанных сообщений. Снайпер / American Sniper (Клинт Иствуд) [боевик, драма, военный, биография, 2014] DVDScr, dvo

Dracon

2002 | 73

2.05 ГБ

В этой теме нет новых непрочитанных сообщений. Снайпер / American Sniper (Клинт Иствуд) [боевик, драма, военный, биография, 2014] DVDScr, Mvo

Dracon

32 | 3

2.05 ГБ

В этой теме нет новых непрочитанных сообщений. Снайпер / American Sniper (Клинт Иствуд) [боевик, драма, военный, биография, 2014] DVDScr, Mvo

Dracon

57 | 3

1.46 ГБ


Начать новую тему Ответить на тему  [ 1 сообщение ] 




Для Мосгорсуда, Роскомнадзора и рекламодателей:: mosgorsud-torrent[собачка]yandex.ru