Торрент файл
скачать торрент магнет ссылка Добавлен: 14 янв 2012, 23:11
Размер: 1.46 ГБ
Сидеров: 32
Личеров: 7
Автор

СообщениеДобавлено: 14 янв 2012, 23:11 

Не в сети
Супермодератор
Аватара пользователя
Дата регистрации:
11 апр 2010, 18:10
Спасибо: 5798 / 7
Сообщения: 56779
Красотка / Pretty Woman


Перевод: Профессиональный (полное дублирование), cубтитры: отсутствуют
Формат: HDRip-AVC, MKV, H.264, AC3
Страна: США
Режиссер: Гэрри Маршалл
Жанр: мелодрама, комедия
Продолжительность: 01:59:37
Год выпуска: 1990

В ролях: Ричард Гир, Джулия Робертс, Ральф Беллами, Джейсон Александр, Лора Сан Джакомо, Алекс Хайд-Вайт, Эми Ясбек, Элинор Донахью, Гектор Элизондо, Джудит Болдуин

Описание: Финансовый магнат Эдвард Льюис, проезжая по ночному городу, останавливается около красивой женщины. Ее зовут Вивьен и она берет только наличными. Наутро он понимает, что не хочет расставаться с ней и предлагает девушке остаться в его номере в отеле еще на некоторое время — за дополнительный гонорар.
Вивьен оказывается в море блеска и лжи. Она терпит небрежное отношение к ней ради понравившегося мужчины, который перестал быть для нее просто клиентом.




Видео: 1072 x 576 (1:86:1), 23.976 fps, AVC, х264, High@L4.1, ~ 1357 Kbps, 0.092 bit/pixel
Аудио: 48 kHz, AC3 Dolby Digital, 3/2 (L,C,R,l,r) + LFE ch, ~384 kbps


Рип: jeenart

General
Unique ID: 228104108348489913015955504118068860335 (0xAB9B40D657BE14878660DEFB8366D5AF)
Complete name: F:\Мои релизы\Все релизы 10\pretty_woman_[tfile.ru].mkv
Format: Matroska
File size: 1.46 GiB
Duration: 1h 59mn
Overall bit rate: 1 742 Kbps
Encoded date: UTC 2011-07-17 12:23:00
Writing application: mkvmerge v4.6.0 ('Still Crazy After All These Years') сборка от Apr1 2011 21:01:49
Writing library: libebml v1.2.0 + libmatroska v1.1.0

Video
ID: 1
Format: AVC
Format/Info: Advanced Video Codec
Format profile: High@L4.1
Format settings, CABAC: Yes
Format settings, ReFrames: 8 frames
Codec ID: V_MPEG4/ISO/AVC
Duration: 1h 59mn
Bit rate: 1 357 Kbps
Width: 1 072 pixels
Height: 576 pixels
Display aspect ratio: 1.861
Frame rate: 23.976 fps
Color space: YUV
Chroma subsampling: 4:2:0
Bit depth: 8 bits
Scan type: Progressive
Bits/(Pixel*Frame): 0.092
Stream size: 1.11 GiB (76%)
Writing library: x264 core 115 r1937 aa21558
Encoding settings: cabac=1 / ref=8 / deblock=1:-1:-1 / analyse=0x3:0x133 / me=umh / subme=9 / psy=1 / psy_rd=1.00:0.10 / mixed_ref=1 / me_range=16 / chroma_me=1 / trellis=2 / 8x8dct=1 / cqm=0 / deadzone=21,11 / fast_pskip=1 / chroma_qp_offset=-3 / threads=6 / sliced_threads=0 / nr=0 / decimate=1 / interlaced=0 / bluray_compat=0 / constrained_intra=0 / bframes=3 / b_pyramid=2 / b_adapt=2 / b_bias=0 / direct=3 / weightb=1 / open_gop=0 / weightp=2 / keyint=250 / keyint_min=23 / scenecut=40 / intra_refresh=0 / rc_lookahead=60 / rc=2pass / mbtree=1 / bitrate=1357 / ratetol=1.0 / qcomp=0.60 / qpmin=0 / qpmax=69 / qpstep=4 / cplxblur=20.0 / qblur=0.5 / ip_ratio=1.40 / aq=1:1.00

Audio
ID: 2
Format: AC-3
Format/Info: Audio Coding 3
Mode extension: CM (complete main)
Codec ID: A_AC3
Duration: 1h 59mn
Bit rate mode: Constant
Bit rate: 384 Kbps
Channel(s): 6 channels
Channel positions: Front: L C R, Side: L R, LFE
Sampling rate: 48.0 KHz
Bit depth: 16 bits
Compression mode: Lossy
Stream size: 329 MiB (22%)






















Поделиться:




реклама партнёра


Вернуться к началу
 Профиль Отправить личное сообщение  
 
   Похожие торренты   Автор   Торрент   Размер 
В этой теме нет новых непрочитанных сообщений. Красотка / Pretty Woman [Комедия, мелодрама, 1990] DVD5, Mvo

salma3

10 | 5

4.35 ГБ

В этой теме нет новых непрочитанных сообщений. Другая женщина / The Other Woman [мелодрама, комедия, 2014] HDRip, Dub [iTunes]

Dracon

1629 | 49

2.05 ГБ

В этой теме нет новых непрочитанных сообщений. Другая женщина / The Other Woman [мелодрама, комедия, 2014] HDRip, Dub [iPad]

salma3

97 | 9

1.43 ГБ

В этой теме нет новых непрочитанных сообщений. Хочешь или нет? / Tu veux... ou tu veux pas? (Тони Маршалл) [Мелодрама, Комедия, 2014] HDRip, Dub [iTunes]

Dracon

13 | 3

1.37 ГБ

В этой теме нет новых непрочитанных сообщений. Красотка / Khoobsurat [Мелодрама, комедия, 2014] DVDRip, Dvo+Sub

salma3

2 | 3

1.47 ГБ

В этой теме нет новых непрочитанных сообщений. Красотка / Khoobsurat [Мелодрама, комедия, 2014] WEB-DLRip 720p, Dvo+Sub

salma3

443 | 36

3.17 ГБ

В этой теме нет новых непрочитанных сообщений. Роковая красотка / Hors de prix [комедия, мелодрама, 2006] BDRip, Dub

salma3

60 | 7

1.46 ГБ


Начать новую тему Ответить на тему  [ 1 сообщение ] 




Для Мосгорсуда, Роскомнадзора и рекламодателей:: mosgorsud-torrent[собачка]yandex.ru