Торрент файл
скачать торрент магнет ссылка Добавлен: 14 янв 2012, 23:11
Размер: 1.45 ГБ
Сидеров: 18
Личеров: 8
Автор

СообщениеДобавлено: 14 янв 2012, 23:11 

Не в сети
Супермодератор
Аватара пользователя
Дата регистрации:
11 апр 2010, 18:10
Спасибо: 5995 / 7
Сообщения: 56686
Любовь и другие катастрофы / Love and Other Disasters


Перевод: Профессиональный (полное дублирование), cубтитры: отсутствуют
Формат: HDRip-AVC, MKV, H.264, AC3
Страна: Франция, Великобритания
Режиссер: Алек Кешишьян
Жанр: мелодрама, комедия
Продолжительность: 01:30:30
Год выпуска: 2006

В ролях: Бриттани Мерфи, Мэттью Риз, Кэтрин Тейт, Сантьяго Кабрера, Эллиот Кауэн, Стефани Бичем, Джэми Сивз, Уилл Кин, Майкл Лернер, Доун Френч

Описание: Американка из британского Vogue пытается помочь своим друзьям устроить личную жизнь. А друзья у неё самые разные: сосед-гей-сценарист Питер, поэтесса Талулла, галерист Финли и ассистент фотографа Паоло…



Видео: 1024 x 552 (1:85:1), 23.976 fps, AVC, х264, High@L4.1, ~ 1915 Kbps, 0.141 bit/pixel
Аудио: 48 kHz, AC3 Dolby Digital, 3/2 (L,C,R,l,r) + LFE ch, ~384 kbps


Рип: jeenart

General
Unique ID: 173807195949088867916934791288221197992 (0x82C20C5EE29B70A79CC1D2E95B3DE6A
Complete name: F:\Мои релизы\Все релизы 10\ljubov_i_drugie_katastrofy_[tfile.ru].mkv
Format: Matroska
File size: 1.45 GiB
Duration: 1h 30mn
Overall bit rate: 2 301 Kbps
Encoded date: UTC 2011-07-17 19:42:23
Writing application: mkvmerge v4.6.0 ('Still Crazy After All These Years') сборка от Apr1 2011 21:01:49
Writing library: libebml v1.2.0 + libmatroska v1.1.0

Video
ID: 1
Format: AVC
Format/Info: Advanced Video Codec
Format profile: High@L4.1
Format settings, CABAC: Yes
Format settings, ReFrames: 8 frames
Format settings, GOP: M=1, N=25
Codec ID: V_MPEG4/ISO/AVC
Duration: 1h 30mn
Bit rate: 1 915 Kbps
Width: 1 024 pixels
Height: 552 pixels
Display aspect ratio: 1.855
Frame rate: 23.976 fps
Color space: YUV
Chroma subsampling: 4:2:0
Bit depth: 8 bits
Scan type: Progressive
Bits/(Pixel*Frame): 0.141
Stream size: 1.18 GiB (81%)
Writing library: x264 core 115 r1937 aa21558
Encoding settings: cabac=1 / ref=8 / deblock=1:-1:-1 / analyse=0x3:0x133 / me=umh / subme=9 / psy=1 / psy_rd=1.00:0.10 / mixed_ref=1 / me_range=16 / chroma_me=1 / trellis=2 / 8x8dct=1 / cqm=0 / deadzone=21,11 / fast_pskip=1 / chroma_qp_offset=-3 / threads=6 / sliced_threads=0 / nr=0 / decimate=1 / interlaced=0 / bluray_compat=0 / constrained_intra=0 / bframes=3 / b_pyramid=2 / b_adapt=2 / b_bias=0 / direct=3 / weightb=1 / open_gop=0 / weightp=2 / keyint=250 / keyint_min=23 / scenecut=40 / intra_refresh=0 / rc_lookahead=60 / rc=2pass / mbtree=1 / bitrate=1915 / ratetol=1.0 / qcomp=0.60 / qpmin=0 / qpmax=69 / qpstep=4 / cplxblur=20.0 / qblur=0.5 / ip_ratio=1.40 / aq=1:1.00

Audio
ID: 2
Format: AC-3
Format/Info: Audio Coding 3
Mode extension: CM (complete main)
Codec ID: A_AC3
Duration: 1h 30mn
Bit rate mode: Constant
Bit rate: 384 Kbps
Channel(s): 6 channels
Channel positions: Front: L C R, Side: L R, LFE
Sampling rate: 48.0 KHz
Bit depth: 16 bits
Compression mode: Lossy
Stream size: 249 MiB (17%)






















Поделиться:



Вернуться к началу
 Профиль Отправить личное сообщение  
 
   Похожие торренты   Автор   Торрент   Размер 
В этой теме нет новых непрочитанных сообщений. Любовь, сбивающая с ног / Punch-Drunk Love [триллер, драма, мелодрама, комедия, 2002] HDRip, Dvo

salma3

0 | 0

1.45 ГБ

В этой теме нет новых непрочитанных сообщений. Чистая Любовь / Pure Love (Ли Юн Хи / -:-) [2016 г., Южная Корея, драма, мелодрама, романтика, HDRip] DVO

Alfredovich

14 | 4

1.76 ГБ

В этой теме нет новых непрочитанных сообщений. Часом не любовь? / Love by Chance [мелодрама, комедия, 2016] HDTVRip, Mvo

salma3

273 | 87

1.35 ГБ

В этой теме нет новых непрочитанных сообщений. Любовь и секс / Love & Sex [драма, мелодрама, комедия, 2000] DVDRip-AVC, Mvo+Sub

salma3

144 | 51

2.35 ГБ

В этой теме нет новых непрочитанных сообщений. Любовь и секс / Love & Sex [драма, мелодрама, комедия, 2000] DVDRip, Mvo

salma3

95 | 25

1.37 ГБ

В этой теме нет новых непрочитанных сообщений. Молодость больница и любовь / Young Doctors in Love [комедия, 1982] HDRip, Avo

salma3

33 | 9

1.45 ГБ

В этой теме нет новых непрочитанных сообщений. Прощай, любовь / Bye Bye Love [Комедия, драма, мелодрама, 1995] HDTV 1080i, Mvo

salma3

16 | 16

6.53 ГБ


Начать новую тему Ответить на тему  [ 1 сообщение ] 




Для Мосгорсуда, Роскомнадзора и рекламодателей:: mosgorsud-torrent[собачка]yandex.ru
cron