Торрент файл
скачать торрент магнет ссылка Добавлен: 14 янв 2012, 22:48
Размер: 2.28 ГБ
Сидеров: 11
Личеров: 6
Автор

СообщениеДобавлено: 14 янв 2012, 22:48 

Не в сети
Супермодератор
Аватара пользователя
Дата регистрации:
11 апр 2010, 18:10
Спасибо: 5929 / 7
Сообщения: 56776
Уолл Стрит: Деньги не спят / Wall Street: Money Never Sleeps

Перевод: Профессиональный (полное дублирование), cубтитры: русские
Формат: HDRip-AVC, MKV, H.264, AC3
Страна: США
Режиссер: Оливер Стоун
Жанр: драма, мелодрама
Продолжительность: 02:12:58
Год выпуска: 2010

В ролях: Майкл Дуглас, Шайа ЛаБаф, Джош Бролин, Кэри Маллиган, Эли Уоллах, Сьюзен Сарандон, Фрэнк Ланджелла, Остин Пендлтон, Джон Бедфорд Ллойд, Ванесса Ферлито

Описание: Отмотавший срок бывший корпоративный рейдер Гордон Гекко выходит из тюрьмы в совершенно новый мир, стоящий на пороге финансового кризиса. Он — динозавр, чьи методы давно устарели, а репутация играет дурную службу. Но именно его выбирает в партнеры молодой трейдер Джейкоб Мур, предлагающий Гекко сделку: он налаживает отношения старика с дочерью, не общавшейся с ним одиннадцать лет и винящей Гордона за самоубийство брата, а тот помогает ухаживающему за девушкой Джейкобу вскарабкаться на вершину финансовой лестницы.

[/field]

Видео: 1280x544 (2.35:1), 23.976 fps, AVC, х264, High@L4.1, ~2 072 Kbps 0.124 bit/pixel
Аудио: 48 kHz, AC3 Dolby Digital, 3/2 (L,C,R,l,r) + LFE ch, ~384 kbps

Релиз группа:

General
Unique ID: 201417828557204731500374031911046596942 (0x9787A9A9033951F9B3F1E1524EC7C94E)
Complete name: E:\Загрузки\Уолл Стрит.Деньги не спят.(2010).720р.[NoLimits-Team].mkv
Format: Matroska
File size: 2.28 GiB
Duration: 2h 12mn
Overall bit rate: 2 455 Kbps
Movie name: Rip by NigAndr (NOLIMITS-TEAM)
Encoded date: UTC 2011-01-16 14:32:49
Writing application: mkvmerge v3.0.0 ('Hang up your Hang-Ups') built on Dec 12 2009 15:20:35
Writing library: libebml v0.7.9 + libmatroska v0.8.1

Video
ID: 1
Format: AVC
Format/Info: Advanced Video Codec
Format profile: High@L4.1
Format settings, CABAC: Yes
Format settings, ReFrames: 3 frames
Format settings, GOP: M=4, N=16
Codec ID: V_MPEG4/ISO/AVC
Duration: 2h 12mn
Bit rate mode: Variable
Bit rate: 2 072 Kbps
Maximum bit rate: 17.5 Mbps
Width: 1 280 pixels
Height: 544 pixels
Display aspect ratio: 2.35:1
Original display aspect ratio: 2.35:1
Frame rate: 23.976 fps
Color space: YUV
Chroma subsampling: 4:2:0
Bit depth: 8 bits
Scan type: Progressive
Bits/(Pixel*Frame): 0.124
Stream size: 1.88 GiB (82%)
Title: Уолл Стрит: Деньги не спят.(2010).720р.[NoLimits-Team]
Writing library: x264 core 112 r1834 a51816a
Encoding settings: cabac=1 / ref=3 / deblock=1:0:0 / analyse=0x3:0x113 / me=hex / subme=7 / psy=1 / psy_rd=1.00:0.00 / mixed_ref=1 / me_range=16 / chroma_me=1 / trellis=1 / 8x8dct=1 / cqm=0 / deadzone=21,11 / fast_pskip=1 / chroma_qp_offset=-2 / threads=6 / sliced_threads=0 / slices=4 / nr=0 / decimate=1 / interlaced=0 / constrained_intra=0 / bframes=3 / b_pyramid=1 / b_adapt=1 / b_bias=0 / direct=1 / weightb=1 / open_gop=0 / weightp=1 / keyint=24 / keyint_min=1 / scenecut=40 / intra_refresh=0 / rc_lookahead=24 / rc=abr / mbtree=1 / bitrate=2072 / ratetol=1.0 / qcomp=0.60 / qpmin=0 / qpmax=51 / qpstep=4 / vbv_maxrate=17500 / vbv_bufsize=14500 / ip_ratio=1.10 / aq=1:1.00 / nal_hrd=vbr
Language: English

Audio
ID: 2
Format: AC-3
Format/Info: Audio Coding 3
Mode extension: CM (complete main)
Codec ID: A_AC3
Duration: 2h 12mn
Bit rate mode: Constant
Bit rate: 384 Kbps
Channel(s): 6 channels
Channel positions: Front: L C R, Side: L R, LFE
Sampling rate: 48.0 KHz
Bit depth: 16 bits
Compression mode: Lossy
Stream size: 365 MiB (16%)
Title: Дубляж.R5
Language: Russian

Text
ID: 3
Format: UTF-8
Codec ID: S_TEXT/UTF8
Codec ID/Info: UTF-8 Plain Text
Title: Forced
Language: Russian

Menu
00:00:00.000: en:Chapter 1
00:08:27.965: en:Chapter 2
00:13:15.503: en:Chapter 3
00:16:05.089: en:Chapter 4
00:20:39.279: en:Chapter 5
00:25:41.456: en:Chapter 6
00:29:45.074: en:Chapter 7
00:35:02.391: en:Chapter 8
00:40:23.879: en:Chapter 9
00:44:59.363: en:Chapter 10
00:49:21.583: en:Chapter 11
00:54:27.973: en:Chapter 12
01:00:36.090: en:Chapter 13
01:03:48.241: en:Chapter 14
01:09:46.640: en:Chapter 15
01:16:28.667: en:Chapter 16
01:21:08.154: en:Chapter 17
01:25:18.404: en:Chapter 18
01:27:36.542: en:Chapter 19
01:32:49.480: en:Chapter 20
01:37:42.356: en:Chapter 21
01:41:27.790: en:Chapter 22
01:45:14.933: en:Chapter 23
01:48:07.814: en:Chapter 24
01:53:44.025: en:Chapter 25
01:58:49.163: en:Chapter 26
02:01:39.917: en:Chapter 27
02:06:31.208: en:Chapter 28








Поделиться:




реклама партнёра


Вернуться к началу
 Профиль Отправить личное сообщение  
 
   Похожие торренты   Автор   Торрент   Размер 
В этой теме нет новых непрочитанных сообщений. Волк с Уолл-стрит / The Wolf of Wall Street [драма, комедия, криминал, биография, 2013] HDRip, Dub [лицензия]

Dracon

13 | 2

2.05 ГБ

В этой теме нет новых непрочитанных сообщений. Волк с Уолл-стрит / The Wolf of Wall Street [драма, комедия, криминал, биография, 2013] DVD5, Dub+Sub [сжатый]

Dracon

38 | 7

4.36 ГБ

В этой теме нет новых непрочитанных сообщений. Волк с Уолл-стрит / The Wolf of Wall Street [драма, комедия, криминал, биография, 2013] BDRip 720p, Dub+Sub [лицензия]

Dracon

3 | 4

9.29 ГБ

В этой теме нет новых непрочитанных сообщений. Волк с Уолл-стрит / The Wolf of Wall Street [драма, комедия, криминал, биография, 2013] BDRip 1080p, Dub+Avo+Sub [Лицензия]

Dracon

246 | 24

19.36 ГБ

В этой теме нет новых непрочитанных сообщений. Деньги, деньги, еще деньги / Больше денег / Mo' Money [Комедия, 1992] WEB-DLRip, Avo

salma3

16 | 6

1.46 ГБ

В этой теме нет новых непрочитанных сообщений. Там, где деньги / Where the Money Is [драма, комедия, криминал, 2000] HDRip, Dvo

salma3

71 | 33

1.45 ГБ

В этой теме нет новых непрочитанных сообщений. Синг Стрит / Sing Street [Драма, мелодрама, комедия, музыка, 2016] BDRip, Avo

salma3

55 | 48

1.46 ГБ


Начать новую тему Ответить на тему  [ 1 сообщение ] 




Для Мосгорсуда, Роскомнадзора и рекламодателей:: mosgorsud-torrent[собачка]yandex.ru