Торрент файл
скачать торрент магнет ссылка Добавлен: 14 янв 2012, 22:47
Размер: 1.45 ГБ
Сидеров: 22
Личеров: 5
Автор

СообщениеДобавлено: 14 янв 2012, 22:47 

Не в сети
Супермодератор
Аватара пользователя
Дата регистрации:
11 апр 2010, 18:10
Спасибо: 5799 / 7
Сообщения: 56779
Стильная штучка / Sweet Home Alabama


Перевод: Профессиональный (полное дублирование), cубтитры: отсутствуют
Формат: HDTVRip-AVC, MKV, H.264, AC3
Страна: США
Режиссер: Энди Теннант
Жанр: мелодрама, комедия
Продолжительность: 01:48:48
Год выпуска: 2002

В ролях: Риз Уизерспун, Дакота Фаннинг, Джош Лукас, Патрик Демпси, Кэндис Берген, Мэри Кэй Плэйс, Фред Уорд, Жан Смарт, Этан Эмбри, Рона Митра

Описание: В этой романтичной комедии нью-йоркский дизайнер мод Мелани Кармайкл внезапно оказывается очарована самым знатным холостяком города. Но прошлое Мелани хранит много тайн, включая Джейка, мужа, за которого она вышла замуж в средней школе, и который отказывается разводиться с ней.
Решив закончить их спорные отношения раз и навсегда, Мелани тайком возвращается домой в штат Алабама, но там она обнаруживает, что можно забрать девушку с Юга, но никогда нельзя забрать Юг из девушки…




Видео: 1024 x 576 (1.78:1), 23.976 fps, AVC, х264, High@L4.1, ~ 1528 Kbps, 0.108 bit/pixel
Аудио: 48 kHz, AC3 Dolby Digital, 3/2 (L,C,R,l,r) + LFE ch, ~384 kbps


Рип: jeenart

General
Unique ID: 238457645367980196207243790081575055697 (0xB365459FB5AE804680240E7694677151)
Complete name: F:\Мои релизы\Все релизы 10\sweet_home_alabama_[tfile.ru].mkv
Format: Matroska
File size: 1.45 GiB
Duration: 1h 48mn
Overall bit rate: 1 913 Kbps
Encoded date: UTC 2011-07-18 20:59:49
Writing application: mkvmerge v4.6.0 ('Still Crazy After All These Years') сборка от Apr1 2011 21:01:49
Writing library: libebml v1.2.0 + libmatroska v1.1.0

Video
ID: 1
Format: AVC
Format/Info: Advanced Video Codec
Format profile: High@L4.1
Format settings, CABAC: Yes
Format settings, ReFrames: 8 frames
Codec ID: V_MPEG4/ISO/AVC
Duration: 1h 48mn
Bit rate: 1 528 Kbps
Width: 1 024 pixels
Height: 576 pixels
Display aspect ratio: 16:9
Frame rate: 23.976 fps
Color space: YUV
Chroma subsampling: 4:2:0
Bit depth: 8 bits
Scan type: Progressive
Bits/(Pixel*Frame): 0.108
Stream size: 1.13 GiB (78%)
Writing library: x264 core 115 r1937 aa21558
Encoding settings: cabac=1 / ref=8 / deblock=1:-1:-1 / analyse=0x3:0x133 / me=umh / subme=9 / psy=1 / psy_rd=1.00:0.10 / mixed_ref=1 / me_range=16 / chroma_me=1 / trellis=2 / 8x8dct=1 / cqm=0 / deadzone=21,11 / fast_pskip=1 / chroma_qp_offset=-3 / threads=6 / sliced_threads=0 / nr=0 / decimate=1 / interlaced=0 / bluray_compat=0 / constrained_intra=0 / bframes=3 / b_pyramid=2 / b_adapt=2 / b_bias=0 / direct=3 / weightb=1 / open_gop=0 / weightp=2 / keyint=250 / keyint_min=23 / scenecut=40 / intra_refresh=0 / rc_lookahead=60 / rc=2pass / mbtree=1 / bitrate=1528 / ratetol=1.0 / qcomp=0.60 / qpmin=0 / qpmax=69 / qpstep=4 / cplxblur=20.0 / qblur=0.5 / ip_ratio=1.40 / aq=1:1.00

Audio
ID: 2
Format: AC-3
Format/Info: Audio Coding 3
Mode extension: CM (complete main)
Codec ID: A_AC3
Duration: 1h 48mn
Bit rate mode: Constant
Bit rate: 384 Kbps
Channel(s): 6 channels
Channel positions: Front: L C R, Side: L R, LFE
Sampling rate: 48.0 KHz
Bit depth: 16 bits
Compression mode: Lossy
Stream size: 299 MiB (20%)
















Поделиться:




реклама партнёра


Вернуться к началу
 Профиль Отправить личное сообщение  
 
   Похожие торренты   Автор   Торрент   Размер 
В этой теме нет новых непрочитанных сообщений. Милая ложь / Sweet Lies [Мелодрама, комедия, 1988] HDTVRip-AVC, Dvo [НТВ+]

salma3

20 | 3

1.52 ГБ

В этой теме нет новых непрочитанных сообщений. Милая ложь / Sweet Lies [Мелодрама, комедия, 1988] HDTVRip, Dvo [НТВ+]

salma3

42 | 8

1.36 ГБ

В этой теме нет новых непрочитанных сообщений. Север ада / Home Sweet Hell (Энтони Бёрнс) [Драма, Комедия, 2015] WEB-DL 720p, avo+sub

Dracon

7 | 2

3.22 ГБ

В этой теме нет новых непрочитанных сообщений. Север ада / Home Sweet Hell (Энтони Бёрнс) [Драма, Комедия, 2015] WEB-DLRip, avo

Dracon

3 | 2

1.47 ГБ

В этой теме нет новых непрочитанных сообщений. Дом, милый ад / Home Sweet Hell (Энтони Бёрнс) [Драма, Комедия, 2015] HDRip, Mvo [iTunes]

Dracon

12 | 2

1.46 ГБ

В этой теме нет новых непрочитанных сообщений. Дом, милый ад / Home Sweet Hell (Энтони Бёрнс) [Драма, Комедия, 2015] BDRip 720p, Mvo [iTunes]

Dracon

69 | 6

6.62 ГБ

В этой теме нет новых непрочитанных сообщений. Дом, милый ад / Home Sweet Hell (Энтони Бёрнс) [Драма, Комедия, 2015] BDRip 1080p, Mvo [iTunes]

Dracon

108 | 4

10.65 ГБ


Начать новую тему Ответить на тему  [ 1 сообщение ] 




Для Мосгорсуда, Роскомнадзора и рекламодателей:: mosgorsud-torrent[собачка]yandex.ru