Торрент файл
скачать торрент магнет ссылка Добавлен: 14 янв 2012, 22:47
Размер: 1.45 ГБ
Сидеров: 33
Личеров: 4
Автор

СообщениеДобавлено: 14 янв 2012, 22:47 

Не в сети
Супермодератор
Аватара пользователя
Дата регистрации:
11 апр 2010, 18:10
Спасибо: 5963 / 7
Сообщения: 56762
Больше, чем друг / The Switch


Перевод: Профессиональный (полное дублирование), cубтитры: отсутствуют
Формат: HDRip-AVC, MKV, H.264, AC3
Страна: США
Режиссер: Джош Гордон, Уилл Спек
Жанр: драма, мелодрама, комедия
Продолжительность: 01:41:41
Год выпуска: 2010

В ролях: Джейсон Бейтман, Дженнифер Энистон, Джефф Голдблюм, Джульетт Льюис, Виктор Паган, Тодд Луисо, Скотт Элрод, Патрик Уилсон, Ребекка Наоми Джонс, Келли Баррет

Описание: Во всем Нью-Йорке не было ближе друзей, чем риэлтор-невротик Уолли и очаровательная Кэсси. Однако когда Кэсси решится на искусственное оплодотворение, донором она выберет надежного и женатого красавца Роланда… Лучшие друзья решают отметить это вечеринкой, где Уолли напивается до неприличия…
Через шесть лет Кэсси возвращается в Нью-Йорк с 5-летним сыном, который поразительно напоминает Уолли самого себя, а заодно вызывает в его памяти все, что случилось той злополучной ночью. Теперь незадачливому «другу» предстоит убедить Кэсси, что они — больше чем друзья, выиграть у Роланда статус «настоящего папы», и разобраться с самим собой.




Видео: 960 x 408 (2:35:1), 23.976 fps, AVC, х264, High@L4.1, ~ 1662 Kbps, 0.177 bit/pixel
Аудио: 48 kHz, AC3 Dolby Digital, 3/2 (L,C,R,l,r) + LFE ch, ~384 kbps


Рип: jeenart

General
Unique ID: 206857208878550035144842125074741238246 (0x9B9F3FD0C2409CED953284805E8699E6)
Complete name: F:\Мои релизы\Все релизы 10\bolshe_chem_drug_[tfile.ru].mkv
Format: Matroska
File size: 1.45 GiB
Duration: 1h 41mn
Overall bit rate: 2 047 Kbps
Encoded date: UTC 2011-07-21 19:50:10
Writing application: mkvmerge v4.6.0 ('Still Crazy After All These Years') сборка от Apr1 2011 21:01:49
Writing library: libebml v1.2.0 + libmatroska v1.1.0

Video
ID: 1
Format: AVC
Format/Info: Advanced Video Codec
Format profile: High@L4.1
Format settings, CABAC: Yes
Format settings, ReFrames: 8 frames
Codec ID: V_MPEG4/ISO/AVC
Duration: 1h 41mn
Bit rate: 1 662 Kbps
Width: 960 pixels
Height: 408 pixels
Display aspect ratio: 2.35:1
Frame rate: 23.976 fps
Color space: YUV
Chroma subsampling: 4:2:0
Bit depth: 8 bits
Scan type: Progressive
Bits/(Pixel*Frame): 0.177
Stream size: 1.15 GiB (79%)
Writing library: x264 core 115 r1937 aa21558
Encoding settings: cabac=1 / ref=8 / deblock=1:-1:-1 / analyse=0x3:0x133 / me=umh / subme=9 / psy=1 / psy_rd=1.00:0.10 / mixed_ref=1 / me_range=16 / chroma_me=1 / trellis=2 / 8x8dct=1 / cqm=0 / deadzone=21,11 / fast_pskip=1 / chroma_qp_offset=-3 / threads=6 / sliced_threads=0 / nr=0 / decimate=1 / interlaced=0 / bluray_compat=0 / constrained_intra=0 / bframes=3 / b_pyramid=2 / b_adapt=2 / b_bias=0 / direct=3 / weightb=1 / open_gop=0 / weightp=2 / keyint=250 / keyint_min=23 / scenecut=40 / intra_refresh=0 / rc_lookahead=60 / rc=2pass / mbtree=1 / bitrate=1662 / ratetol=1.0 / qcomp=0.60 / qpmin=0 / qpmax=69 / qpstep=4 / cplxblur=20.0 / qblur=0.5 / ip_ratio=1.40 / aq=1:1.00

Audio
ID: 2
Format: AC-3
Format/Info: Audio Coding 3
Mode extension: CM (complete main)
Codec ID: A_AC3
Duration: 1h 41mn
Bit rate mode: Constant
Bit rate: 384 Kbps
Channel(s): 6 channels
Channel positions: Front: L C R, Side: L R, LFE
Sampling rate: 48.0 KHz
Bit depth: 16 bits
Compression mode: Lossy
Stream size: 279 MiB (19%)






















Поделиться:




реклама партнёра


Вернуться к началу
 Профиль Отправить личное сообщение  
 
   Похожие торренты   Автор   Торрент   Размер 
В этой теме нет новых непрочитанных сообщений. Больше, чем друг / The Switch [драма, мелодрама, комедия, 2010] BDRemux, Dub

salma3

12 | 3

27.31 ГБ

В этой теме нет новых непрочитанных сообщений. Больше, чем друг / The Switch [драма, мелодрама, комедия, 2010] BDRip 720p, Dub+Mvo

salma3

53 | 6

4.82 ГБ

В этой теме нет новых непрочитанных сообщений. Энни / Annie (Уилл Глак) [мюзикл, драма, комедия, семейный, 2014] HDRip, Dub [iTunes]

Dracon

7 | 3

2.05 ГБ

В этой теме нет новых непрочитанных сообщений. Энни / Annie (Уилл Глак) [мюзикл, драма, комедия, семейный, 2014] HDRip, Dub [iTunes]

Dracon

2 | 3

1.37 ГБ

В этой теме нет новых непрочитанных сообщений. Самый близкий друг / Darling Companion [драма, мелодрама, комедия, 2012] BDRip, Dvo

salma3

144 | 23

1.46 ГБ

В этой теме нет новых непрочитанных сообщений. Друг моей подруги / L'ami de mon amie (Эрик Ромер / Eric Rohmer) [1987г., Франция, драма, мелодрама, комедия, BDRip] MVO

Alfredovich

3 | 0

1.45 ГБ

В этой теме нет новых непрочитанных сообщений. Мой друг Дед Мороз / Le pere Noel [комедия, 2014] HDRip, Mvo

salma3

70 | 5

1.36 ГБ


Начать новую тему Ответить на тему  [ 1 сообщение ] 




Для Мосгорсуда, Роскомнадзора и рекламодателей:: mosgorsud-torrent[собачка]yandex.ru