Торрент файл
скачать торрент магнет ссылка Добавлен: 14 янв 2012, 22:46
Размер: 2.05 ГБ
Сидеров: 46
Личеров: 6
Автор

СообщениеДобавлено: 14 янв 2012, 22:46 

Не в сети
Супермодератор
Аватара пользователя
Дата регистрации:
11 апр 2010, 18:10
Спасибо: 5799 / 7
Сообщения: 56779
Месть / Haevnen

Перевод: Профессиональный (многоголосый, закадровый), cубтитры: русские, английские
Формат: HDRip-AVC, MKV, H.264, AC3
Страна: Дания, Швеция
Режиссер: Сюзанна Бир
Жанр: драма
Продолжительность: 01:57:44
Год выпуска: 2010

В ролях: Микаэль Персбрандт, Трин Дюрхольм, Ульрих Томсен, Вильям Йонк Нильсен, Маркус Рюгард, Уил Джонсон, Эдди Кимани, Эмили Мглая, Гэбриэл Мули, Джун Ваверу, Мэри Хуну Моат

Описание: Сорокалетний Антон возвращается в родную Данию, много лет проработав в африканском лагере для беженцев. Долгие годы среди чужого горя научили его никогда не отвечать насилием на насилие. Даже когда местный автомеханик беспричинно избивает Антона, тот сдерживает гнев. Кажется, что конфликт исчерпан, но его сын Элиас вместе со своим другом Кристианом решают отомстить за отца.

[/field]

Видео: 1212х508 (2.35:1), 23.976 fps, AVC, х264, High@L4.1, ~1 587 Kbps 0.107 bit/pixel

Аудио #1: Русский: 48 kHz, AC3 Dolby Digital, 3/2 (L,C,R,l,r) + LFE ch, ~448.00 kbps avg Профессиональный (многоголосый, закадровый)
Аудио #2:Датский :48 kHz, AC3 Dolby Digital, 3/2 (L,C,R,l,r) + LFE ch, ~448.00 kbps avg [Оригинал]

Доп. информация: Премьера (РФ) 28 апреля 2011

Оскар, 2011 год

Победитель (1):
Лучший фильм на иностранном языке — «Дания»

Золотой глобус, 2011 год

Победитель (1):
Лучший фильм на иностранном языке
General
Unique ID: 215212591461476374413117542782428359090 (0xA1E86FFB71B48557B55B6978DEA1A9B2)
Complete name: E:\Загрузки\Месть.2010.BDRip-AVC.by.jlиС.mkv
Format: Matroska
File size: 2.05 GiB
Duration: 1h 58mn
Overall bit rate: 2 485 Kbps
Movie name: Месть / Hævnen (2010) [BDRip-AVC by jlиС]
Encoded date: UTC 2011-06-14 22:34:49
Writing application: mkvmerge v2.9.0 ('Moanin'') built on May 22 2009 17:46:31
Writing library: libebml v0.7.7 + libmatroska v0.8.1

Video
ID: 1
Format: AVC
Format/Info: Advanced Video Codec
Format profile: High@L4.1
Format settings, CABAC: Yes
Format settings, ReFrames: 9 frames
Format settings, GOP: M=1, N=32
Codec ID: V_MPEG4/ISO/AVC
Duration: 1h 58mn
Bit rate: 1 587 Kbps
Width: 1 212 pixels
Height: 508 pixels
Display aspect ratio: 2.35:1
Frame rate: 24.000 fps
Color space: YUV
Chroma subsampling: 4:2:0
Bit depth: 8 bits
Scan type: Progressive
Bits/(Pixel*Frame): 0.107
Stream size: 1.27 GiB (62%)
Title: BDRip-AVC by jlиС
Writing library: x264 core 113 r1884 7313bb5
Encoding settings: cabac=1 / ref=9 / deblock=1:-2:-1 / analyse=0x3:0x113 / me=umh / subme=10 / psy=1 / psy_rd=1.00:0.20 / mixed_ref=1 / me_range=32 / chroma_me=1 / trellis=2 / 8x8dct=1 / cqm=0 / deadzone=21,11 / fast_pskip=1 / chroma_qp_offset=-3 / threads=3 / sliced_threads=0 / nr=0 / decimate=1 / interlaced=0 / constrained_intra=0 / bframes=8 / b_pyramid=2 / b_adapt=2 / b_bias=0 / direct=3 / weightb=1 / open_gop=0 / weightp=2 / keyint=250 / keyint_min=24 / scenecut=45 / intra_refresh=0 / rc_lookahead=40 / rc=2pass / mbtree=1 / bitrate=1587 / ratetol=1.0 / qcomp=0.65 / qpmin=0 / qpmax=69 / qpstep=4 / cplxblur=20.0 / qblur=0.5 / vbv_maxrate=50000 / vbv_bufsize=62500 / nal_hrd=none / ip_ratio=1.40 / aq=2:1.00
Matrix coefficients: BT.709-5, BT.1361, IEC 61966-2-4 709, SMPTE RP177

Audio #1
ID: 2
Format: AC-3
Format/Info: Audio Coding 3
Mode extension: CM (complete main)
Codec ID: A_AC3
Duration: 1h 58mn
Bit rate mode: Constant
Bit rate: 448 Kbps
Channel(s): 6 channels
Channel positions: Front: L C R, Side: L R, LFE
Sampling rate: 48.0 KHz
Bit depth: 16 bits
Compression mode: Lossy
Stream size: 378 MiB (18%)
Title: Профессиональный (многоголосый, закадровый)
Language: Russian

Audio #2
ID: 3
Format: AC-3
Format/Info: Audio Coding 3
Mode extension: CM (complete main)
Codec ID: A_AC3
Duration: 1h 58mn
Bit rate mode: Constant
Bit rate: 448 Kbps
Channel(s): 6 channels
Channel positions: Front: L C R, Side: L R, LFE
Sampling rate: 48.0 KHz
Bit depth: 16 bits
Compression mode: Lossy
Stream size: 378 MiB (18%)
Title: Original track
Language: Danish

Text #1
ID: 4
Format: UTF-8
Codec ID: S_TEXT/UTF8
Codec ID/Info: UTF-8 Plain Text
Language: Russian

Text #2
ID: 5
Format: UTF-8
Codec ID: S_TEXT/UTF8
Codec ID/Info: UTF-8 Plain Text
Language: English








Поделиться:




реклама партнёра


Вернуться к началу
 Профиль Отправить личное сообщение  
 
   Похожие торренты   Автор   Торрент   Размер 
В этой теме нет новых непрочитанных сообщений. Серена / Serena (Сюзанна Бир) [Драма, 2014] HDRip, Dub [iTunes]

Dracon

8 | 2

1.37 ГБ

В этой теме нет новых непрочитанных сообщений. Серена / Serena (Сюзанна Бир) [Драма, 2014] HDRip, dub [чистый звук]

Dracon

21 | 2

2.05 ГБ

В этой теме нет новых непрочитанных сообщений. Серена  / Serena (Сюзанна Бир) [Драма, 2014] HDRip, dub [чистый звук]

Dracon

23 | 2

1.37 ГБ

В этой теме нет новых непрочитанных сообщений. Второй шанс / En chance til (Сюзанна Бир) [триллер, драма, 2014] HDRip, dvo

Dracon

7 | 0

1.44 ГБ

В этой теме нет новых непрочитанных сообщений. Месть от кутюр / The Dressmaker [драма, 2015] HDRip, Mvo

salma3

340 | 30

2.18 ГБ

В этой теме нет новых непрочитанных сообщений. Серена / Serena (Сюзанна Бир) [Драма, 2014] Blu-Ray, Dub [iTunes]

Dracon

1 | 5

31.62 ГБ

В этой теме нет новых непрочитанных сообщений. Серена / Serena (Сюзанна Бир) [Драма, 2014] BDRip 1080p, Dub [iTunes]

Dracon

13 | 4

7.95 ГБ


Начать новую тему Ответить на тему  [ 1 сообщение ] 




Для Мосгорсуда, Роскомнадзора и рекламодателей:: mosgorsud-torrent[собачка]yandex.ru