Торрент файл
скачать торрент магнет ссылка Добавлен: 14 янв 2012, 22:46
Размер: 1.37 ГБ
Сидеров: 7
Личеров: 6
Автор

СообщениеДобавлено: 14 янв 2012, 22:46 

Не в сети
Супермодератор
Аватара пользователя
Дата регистрации:
11 апр 2010, 18:10
Спасибо: 5801 / 7
Сообщения: 56779
Линия судьбы / Catherine Cookson's The Cinder Path


«Долгая дорога в поисках счастья и любви»

Перевод: Профессиональный (многоголосый, закадровый), cубтитры: отсутствуют
Формат: DVDRip, AVI, XviD, AC3
Страна: Великобритания
Режиссер: Саймон Лэнгтон
Жанр: драма, мелодрама, военный
Продолжительность: 02:29:42
Год выпуска: 1994

В ролях: Кэтрин Зета-Джонс, Том Белл, Ллойд Оуэн, Майлс Мария, Поли Адамс, Розалинд Эйрис, Энтони Бирн, Дэвид Хаунслоу, Виктория Скарборо

Описание: Драматическая история любви, которая начинается в 1913 году, когда скромный выпускник университета Чарли МакФелл, под воздействием отца, начинает ухаживать за богатой наследницей - красивой и обольстительной, но капризной Викторией Чэпмэн. Молодые люди поженились, но брак оказался катастрофой для обоих. Он был нужен Виктории, чтобы избавиться от семейной опеки и сразу после свадьбы она начинает изменять мужу. Чарли всегда знал, что ему нравится её младшая сестра, но вдруг он осознает, что он всей душёй влюблен в Нелли, младшую сестру жены. Когда начинается война, Чарли отправляется на Западный фронт, проявляет чудеса храбрости и недюжинную силу характера. Вернувшись домой, он обретает настоящую любовь в объятиях Нелли. Но когда счастье было так близко, судьба наносит новый удар... По роману популярнейшей английской писательницы Кэтрин Куксон, чьи книги разошлись по свету миллионными тиражами.



Видео:608x464 (1.31:1), 25 fps, XviD MPEG-4 ~1091 kbps avg, 0.15 bit/pixel
Аудио:48 kHz, AC3 Dolby Digital, 2/0 (L,R) ch, ~192.00 kbps avg
Данные для 3-х файлов идентичны


Общее
Полное имя: D:\Мои фильмы\The Cinder Path\The Cinder Path cd1.avi
Формат: AVI
Формат/Информация: Audio Video Interleave
Размер файла: 468 Мбайт
Продолжительность: 50 м.
Общий поток: 1293 Кбит/сек
Программа кодирования: Nandub v1.0rc2
Библиотека кодирования: Nandub build 1853/release

Видео
Идентификатор: 0
Формат: MPEG-4 Visual
Профиль формата: Advanced Simple@L1
Параметр BVOP формата: 2
Параметр QPel формата: Нет
Параметр GMC формата: Без точки перехода
Параметр матрицы формата: Default (H.263)
Режим смешивания: Сжатый битовый поток
Идентификатор кодека: XVID
Идентификатор кодека/Подсказка: XviD
Продолжительность: 50 м.
Битрейт: 1091 Кбит/сек
Ширина: 608 пикс.
Высота: 464 пикс.
Соотношение сторон: 4:3
Частота кадров: 25,000 кадр/сек
Цветовое пространство: YUV
Подвыборка цветности: 4:2:0
Битовая глубина: 8 бит
Тип развёртки: Прогрессивная
Метод сжатия: С потерями
Бит/(Пиксели*Кадры): 0.155
Размер потока: 395 Мбайт (84%)
Библиотека кодирования: XviD 1.1.2 (UTC 2006-11-01)

Аудио
Идентификатор: 1
Формат: AC-3
Формат/Информация: Audio Coding 3
Расширение режима: CM (complete main)
Идентификатор кодека: 2000
Продолжительность: 50 м.
Вид битрейта: Постоянный
Битрейт: 192 Кбит/сек
Канал(ы): 2 канала(ов)
Расположение каналов: Front: L R
Частота: 48,0 КГц
Битовая глубина: 16 бит
Метод сжатия: С потерями
Размер потока: 69,5 Мбайт (15%)
Выравнивание: Разделение по промежуткам
Продолжительность промежутка: 40мс. (1,00 видеокадр)
Время предзагрузки промежутка: 500 ms

Общее
Полное имя: D:\Мои фильмы\The Cinder Path\The Cinder Path cd2.avi
Формат: AVI
Формат/Информация: Audio Video Interleave
Размер файла: 468 Мбайт
Продолжительность: 50 м.
Общий поток: 1293 Кбит/сек
Программа кодирования: Nandub v1.0rc2
Библиотека кодирования: Nandub build 1853/release

Видео
Идентификатор: 0
Формат: MPEG-4 Visual
Профиль формата: Advanced Simple@L1
Параметр BVOP формата: 2
Параметр QPel формата: Нет
Параметр GMC формата: Без точки перехода
Параметр матрицы формата: Default (H.263)
Режим смешивания: Сжатый битовый поток
Идентификатор кодека: XVID
Идентификатор кодека/Подсказка: XviD
Продолжительность: 50 м.
Битрейт: 1091 Кбит/сек
Ширина: 608 пикс.
Высота: 464 пикс.
Соотношение сторон: 4:3
Частота кадров: 25,000 кадр/сек
Цветовое пространство: YUV
Подвыборка цветности: 4:2:0
Битовая глубина: 8 бит
Тип развёртки: Прогрессивная
Метод сжатия: С потерями
Бит/(Пиксели*Кадры): 0.155
Размер потока: 395 Мбайт (84%)
Библиотека кодирования: XviD 1.1.2 (UTC 2006-11-01)

Аудио
Идентификатор: 1
Формат: AC-3
Формат/Информация: Audio Coding 3
Расширение режима: CM (complete main)
Идентификатор кодека: 2000
Продолжительность: 50 м.
Вид битрейта: Постоянный
Битрейт: 192 Кбит/сек
Канал(ы): 2 канала(ов)
Расположение каналов: Front: L R
Частота: 48,0 КГц
Битовая глубина: 16 бит
Метод сжатия: С потерями
Размер потока: 69,5 Мбайт (15%)
Выравнивание: Разделение по промежуткам
Продолжительность промежутка: 40мс. (1,00 видеокадр)
Время предзагрузки промежутка: 500 ms

Общее
Полное имя: D:\Мои фильмы\The Cinder Path\The Cinder Path cd3.avi
Формат: AVI
Формат/Информация: Audio Video Interleave
Размер файла: 467 Мбайт
Продолжительность: 50 м.
Общий поток: 1293 Кбит/сек
Программа кодирования: Nandub v1.0rc2
Библиотека кодирования: Nandub build 1853/release

Видео
Идентификатор: 0
Формат: MPEG-4 Visual
Профиль формата: Advanced Simple@L1
Параметр BVOP формата: 2
Параметр QPel формата: Нет
Параметр GMC формата: Без точки перехода
Параметр матрицы формата: Default (H.263)
Режим смешивания: Сжатый битовый поток
Идентификатор кодека: XVID
Идентификатор кодека/Подсказка: XviD
Продолжительность: 50 м.
Битрейт: 1091 Кбит/сек
Ширина: 608 пикс.
Высота: 464 пикс.
Соотношение сторон: 4:3
Частота кадров: 25,000 кадр/сек
Цветовое пространство: YUV
Подвыборка цветности: 4:2:0
Битовая глубина: 8 бит
Тип развёртки: Прогрессивная
Метод сжатия: С потерями
Бит/(Пиксели*Кадры): 0.155
Размер потока: 394 Мбайт (84%)
Библиотека кодирования: XviD 1.1.2 (UTC 2006-11-01)

Аудио
Идентификатор: 1
Формат: AC-3
Формат/Информация: Audio Coding 3
Расширение режима: CM (complete main)
Идентификатор кодека: 2000
Продолжительность: 50 м.
Вид битрейта: Постоянный
Битрейт: 192 Кбит/сек
Канал(ы): 2 канала(ов)
Расположение каналов: Front: L R
Частота: 48,0 КГц
Битовая глубина: 16 бит
Метод сжатия: С потерями
Размер потока: 69,4 Мбайт (15%)
Выравнивание: Разделение по промежуткам
Продолжительность промежутка: 40мс. (1,00 видеокадр)
Время предзагрузки промежутка: 500 ms









Поделиться:




реклама партнёра


Вернуться к началу
 Профиль Отправить личное сообщение  
 
   Похожие торренты   Автор   Торрент   Размер 
В этой теме нет новых непрочитанных сообщений. Короткая переправа / Brève traversée (Катрин Брейлла / Catherine Breillat) [2001г., драма, мелодрама, DVDRip] avo

Alfredovich

68 | 9

1.21 ГБ

В этой теме нет новых непрочитанных сообщений. 10 мгновений судьбы / The Turning (Марика Уолш, Саймон Стоун...) [драма, 2013] WEB-DLRip, Mvo [Позитив]

Dracon

1 | 2

1.37 ГБ

В этой теме нет новых непрочитанных сообщений. Женское отделение 74-й роты / Prostitute 74th Branch [драма, военный, 1994] DVDRip, Avo

salma3

55 | 6

1.36 ГБ

В этой теме нет новых непрочитанных сообщений. Ancient Ascendant - Echoes And Cinder [2014, Death Metal, MP3]

PriZraK

0 | 1

104.64 МБ

В этой теме нет новых непрочитанных сообщений. Serpentine Path - Serpentine Path [2012, Doom Death Metal, MP3]

PriZraK

0 | 1

59.41 МБ

В этой теме нет новых непрочитанных сообщений. Линия Марты [01-04 из 04] [мелодрама, 2014] SATRip

Dracon

66 | 10

2.47 ГБ

В этой теме нет новых непрочитанных сообщений. Сильнее судьбы [01-16 из 16] [Драма, мелодрама, 2014] HDTVRip 720p

Dracon

64 | 9

24.89 ГБ


Начать новую тему Ответить на тему  [ 1 сообщение ] 




Для Мосгорсуда, Роскомнадзора и рекламодателей:: mosgorsud-torrent[собачка]yandex.ru