Торрент файл
скачать торрент магнет ссылка Добавлен: 14 янв 2012, 22:45
Размер: 699.12 МБ
Сидеров: 20
Личеров: 4
Автор

СообщениеДобавлено: 14 янв 2012, 22:45 

Не в сети
Супермодератор
Аватара пользователя
Дата регистрации:
11 апр 2010, 18:10
Спасибо: 5802 / 7
Сообщения: 56779
Мои черничные ночи / My Blueberry Nights


Перевод: Профессиональный (многоголосый, закадровый), cубтитры: отсутствуют
Формат: LowHDRip, AVI, XviD, MP3
Страна: Франция, Гонконг, Китай
Режиссер: Вонг Кар-Вай
Жанр: драма, мелодрама
Продолжительность: 01:35:00
Год выпуска: 2007
В ролях: Нора Джонс, Джуд Ло, Дэвид Стретхерн, Тим Рот, Натали Портман, Рейчел Уэйц, Эд Харрис, Ян Фальк, Эдриейн Ленокс, Арнита Уильямс, Бенджамин Кейнс

Описание: Элизабет, молодая женщина, прошедшая через множество разочарований, ищет себя и пытается залечить своё разбитое сердце. По мере того, как заживают сердечные раны, мимолётные встречи с незнакомыми людьми ведут её к новым и неизведанным страницам жизни.

Будь то мечтательный владелец ночного кафе или невезучая девушка-игрок, делающая Элизабет отчаянное предложение, или несчастный полицейский и его непокорная жена — все эти люди помогают Элизабет изменить свои взгляды на жизнь, на взаимоотношения между людьми и, в конечном счёте, на саму себя. Постепенно Элизабет освобождается от прошлого и открывает новый путь к глубинам своей души — путь к подлинной любви.




Видео: 656x272 (2.41:1), 23.976 fps, XviD build 46 ~896 kbps avg, 0.21 bit/pixel
Аудио: 48 kHz, MPEG Layer 3, 2 ch, ~128.00 kbps avg

Релиз:




Общее
Полное имя: E:\Мои черничные ночи HDRip.avi
Формат: AVI
Формат/Информация: Audio Video Interleave
Размер файла: 699 Мбайт
Продолжительность: 1 ч. 35 м.
Общий поток: 1029 Кбит/сек

Видео
Идентификатор: 0
Формат: MPEG-4 Visual
Профиль формата: Advanced Simple@L5
Параметр BVOP формата: 1
Параметр QPel формата: Нет
Параметр GMC формата: Без точки перехода
Параметр матрицы формата: Default (MPEG)
Идентификатор кодека: XVID
Идентификатор кодека/Подсказка: XviD
Продолжительность: 1 ч. 35 м.
Битрейт: 896 Кбит/сек
Ширина: 656 пикс.
Высота: 272 пикс.
Соотношение сторон: 2,40:1
Частота кадров: 23,976 кадр/сек
Цветовое пространство: YUV
Подвыборка цветности: 4:2:0
Битовая глубина: 8 бит
Тип развёртки: Прогрессивная
Метод сжатия: С потерями
Бит/(Пиксели*Кадры): 0.209
Размер потока: 609 Мбайт (87%)
Библиотека кодирования: XviD 1.1.2 (UTC 2006-11-01)

Аудио
Идентификатор: 1
Формат: MPEG Audio
Версия формата: Version 1
Профиль формата: Layer 3
Режим: Joint stereo
Расширение режима: MS Stereo
Идентификатор кодека: 55
Идентификатор кодека/Подсказка: MP3
Продолжительность: 1 ч. 35 м.
Вид битрейта: Постоянный
Битрейт: 128 Кбит/сек
Канал(ы): 2 канала(ов)
Частота: 48,0 КГц
Метод сжатия: С потерями
Размер потока: 87,0 Мбайт (12%)
Выравнивание: Соединение по промежуткам
Продолжительность промежутка: 1006мс. (24,12 видеокадров)
Время предзагрузки промежутка: 216 ms
Заголовок: audio
Библиотека кодирования: LAME3.97
Настройки программы: -m j -V 4 -q 0 -lowpass 17 -b 128





Поделиться:




реклама партнёра


Вернуться к началу
 Профиль Отправить личное сообщение  
 
   Похожие торренты   Автор   Торрент   Размер 
В этой теме нет новых непрочитанных сообщений. Дни и ночи / Days and Nights (Кристиан Камарго) [Драма, комедия, 2013] HDRip, Mvo

Dracon

664 | 68

1.37 ГБ

В этой теме нет новых непрочитанных сообщений. Дни и ночи / Days and Nights (Кристиан Камарго) [Драма, комедия, 2013] BDRip 1080p, Mvo

Dracon

9 | 1

6.67 ГБ

В этой теме нет новых непрочитанных сообщений. Дни и ночи / Days and Nights (Кристиан Камарго) [Драма, комедия, 2013] BDRip 720p, Mvo

Dracon

10 | 1

3.4 ГБ

В этой теме нет новых непрочитанных сообщений. Под покровом ночи / В холоде ночи / In The Cold Of The Night [Триллер, мелодрама, детектив, 1990] DVDRip, Avo

salma3

2 | 1

1.45 ГБ

В этой теме нет новых непрочитанных сообщений. Хозяева ночи / We Own the Night [триллер, драма, криминал, 2007] BDRip 1080p, Dub [Лицензия]

salma3

46 | 5

10.83 ГБ

В этой теме нет новых непрочитанных сообщений. Хозяева ночи / We Own the Night [триллер, драма, криминал, 2007] BDRip 720p, Dub [Лицензия]

salma3

106 | 2

5.75 ГБ

В этой теме нет новых непрочитанных сообщений. Ночи полнолуния / Les nuits de la pleine lune [драма, мелодрама, 1984] BDRip 720p, Avo

salma3

35 | 20

7.34 ГБ


Начать новую тему Ответить на тему  [ 1 сообщение ] 




Для Мосгорсуда, Роскомнадзора и рекламодателей:: mosgorsud-torrent[собачка]yandex.ru