Торрент файл
скачать торрент магнет ссылка Добавлен: 14 янв 2012, 22:45
Размер: 1.47 ГБ
Сидеров: 17
Личеров: 4
Автор

СообщениеДобавлено: 14 янв 2012, 22:45 

Не в сети
Супермодератор
Аватара пользователя
Дата регистрации:
11 апр 2010, 18:10
Спасибо: 5803 / 7
Сообщения: 56779
Призраки Гойи / Goya's Ghosts


Перевод: Профессиональный (полное дублирование), cубтитры: отсутствуют
Формат: HDTVRip, AVI, XviD, AC3
Страна: США, Испания
Режиссер: Милош Форман
Жанр: драма, военный, биография
Продолжительность: 01:49:00
Год выпуска: 2006
В ролях: Натали Портман, Хавьер Бардем, Стеллан Скарсгард, Рэнди Куэйд, Бланка Портильо, Мишель Лонсдаль, Хосе Луис Гомес, Мабель Ривера, Саймон Андре, Скотт Клевердон, Кайетано Мартинес де Ирухо, Крэйг Стивенсон, Фернандо Тьельве, Унакс Угальде

Описание: Инесс, музу знаменитого портретиста Франциско Гойи, инквизиция бросает в темницу. В отчаянии живописец просит о помощи своего друга, священника Лоренцо. Их взаимоотношения подвергаются серьезному испытанию, необратимо меняя судьбы всех троих.



Видео: 720x384 (1.88:1), 25 fps, XviD build 50 ~1530 kbps avg, 0.22 bit/pixel
Аудио: 48 kHz, AC3 Dolby Digital, 3/2 (L,C,R,l,r) + LFE ch, ~384.00 kbps avg

Релиз:




Общее
Полное имя: E:\Призраки Гойи.avi
Формат: AVI
Формат/Информация: Audio Video Interleave
Размер файла: 1,47 Гбайт
Продолжительность: 1 ч. 49 м.
Общий поток: 1925 Кбит/сек
Программа кодирования: VirtualDubMod 1.5.10.2 (build 2540/release)
Библиотека кодирования: VirtualDubMod build 2540/release

Видео
Идентификатор: 0
Формат: MPEG-4 Visual
Профиль формата: Advanced Simple@L5
Параметр BVOP формата: 1
Параметр QPel формата: Нет
Параметр GMC формата: Без точки перехода
Параметр матрицы формата: Default (MPEG)
Идентификатор кодека: XVID
Идентификатор кодека/Подсказка: XviD
Продолжительность: 1 ч. 49 м.
Битрейт: 1531 Кбит/сек
Ширина: 720 пикс.
Высота: 384 пикс.
Соотношение сторон: 1,875
Частота кадров: 25,000 кадр/сек
Цветовое пространство: YUV
Подвыборка цветности: 4:2:0
Битовая глубина: 8 бит
Тип развёртки: Прогрессивная
Метод сжатия: С потерями
Бит/(Пиксели*Кадры): 0.221
Размер потока: 1,17 Гбайт (80%)
Библиотека кодирования: XviD 1.2.1 (UTC 2008-12-04)

Аудио
Идентификатор: 1
Формат: AC-3
Формат/Информация: Audio Coding 3
Расширение режима: CM (complete main)
Идентификатор кодека: 2000
Продолжительность: 1 ч. 49 м.
Вид битрейта: Постоянный
Битрейт: 384 Кбит/сек
Канал(ы): 6 канала(ов)
Расположение каналов: Front: L C R, Side: L R, LFE
Частота: 48,0 КГц
Битовая глубина: 16 бит
Метод сжатия: С потерями
Размер потока: 299 Мбайт (20%)
Выравнивание: Соединение по промежуткам
Продолжительность промежутка: 40мс. (1,00 видеокадр)
Время предзагрузки промежутка: 512 ms





Поделиться:




реклама партнёра


Вернуться к началу
 Профиль Отправить личное сообщение  
 
   Похожие торренты   Автор   Торрент   Размер 
В этой теме нет новых непрочитанных сообщений. Призраки Гойи / Goya's Ghosts [драма, биография, история, 2006] BDRip 720p, Dub+Avo+Sub

salma3

48 | 5

6.94 ГБ

В этой теме нет новых непрочитанных сообщений. Призраки Миссисипи / Ghosts of Mississippi [Драма, криминал, 1996] WEB-DL 720p, Mvo+Avo+Sub

salma3

65 | 7

4.1 ГБ

В этой теме нет новых непрочитанных сообщений. Призраки в Коннектикуте 2: Тени прошлого / The Haunting in Connecticut 2: Ghosts of Georgia (Том Элкинс) [2013, ужасы, триллер, драма, BDRip | Лицензия] Dub

Nickolas3435

454 | 23

1.45 ГБ

В этой теме нет новых непрочитанных сообщений. Призраки в Коннектикуте 2: Тени прошлого / The Haunting in Connecticut 2: Ghosts of Georgia [ужасы, триллер, драма, 2013] HDRip, dub [Чистый звук]

Dracon

200 | 5

1.46 ГБ

В этой теме нет новых непрочитанных сообщений. Призраки в Коннектикуте 2: Тени прошлого / The Haunting in Connecticut 2: Ghosts of Georgia [ужасы, триллер, драма, 2013] BDRip 1080p, dvo+dub+sub [Чистый звук]

Dracon

100 | 3

6.92 ГБ

В этой теме нет новых непрочитанных сообщений. Призраки Марса / Ghosts of Mars [Ужасы, фантастика, боевик, 2001] BDRip-AVC, Mvo+Avo+Sub

salma3

35 | 1

2.91 ГБ

В этой теме нет новых непрочитанных сообщений. Призраки чрева / Ngok toi / Womb Ghosts [Ужасы, 2010] Blu-ray Remux 1080p, Avo+Sub

salma3

14 | 8

13.48 ГБ


Начать новую тему Ответить на тему  [ 1 сообщение ] 




Для Мосгорсуда, Роскомнадзора и рекламодателей:: mosgorsud-torrent[собачка]yandex.ru