Торрент файл
скачать торрент магнет ссылка Добавлен: 14 янв 2012, 22:44
Размер: 700.86 МБ
Сидеров: 6
Личеров: 3
Автор

СообщениеДобавлено: 14 янв 2012, 22:44 

Не в сети
Супермодератор
Аватара пользователя
Дата регистрации:
11 апр 2010, 18:10
Спасибо: 5803 / 7
Сообщения: 56779
Империя Солнца / Empire of the Sun


Перевод: Профессиональный (полное дублирование), cубтитры: отсутствуют
Формат: DVDRip, AVI, XviD, MP3
Страна: США
Режиссер: Стивен Спилберг
Жанр: драма, военный, биография
Продолжительность: 02:26:46
Год выпуска: 1987
В ролях: Лесли Филлипс, Джон Малкович, Миранда Ричардсон, Найджел Хэверс, Эмили Ричард, Джо Пантолиано, Кристиан Бэйл

Описание: 1941 год, Вторая Мировая война. Юный англичанин Джим Грэхем живет в богатой семье в Китае. Японцы вторглись в Шанхай, Джим теряется в толпе и остается без родителей в захваченном городе. Во время скитаний находит друга Бэйзи, с которым попадает в лагерь заключенных.

Среди болезни и нехватки пищи, Джим борется за выживание, вынося предательства и оскорбления… Нити, связывающие его с детством, ослабевают, но Джим пытается сохранить дух и достоинство. Япония капитулировала. Перенеся все ужасы войны, превратившись из счастливого ребенка в измученного подростка, он, наконец, встречается со своими родителями.




Видео: 592x336 (1.76:1), 25 fps, XviD build 47 ~541 kbps avg, 0.11 bit/pixel
Аудио: 48 kHz, MPEG Layer 3, 2 ch, ~113.91 kbps avg




Общее
Полное имя: E:\Imperiya_Solnca_(1987).avi
Формат: AVI
Формат/Информация: Audio Video Interleave
Размер файла: 701 Мбайт
Продолжительность: 2 ч. 26 м.
Общий поток: 669 Кбит/сек
Программа кодирования: VirtualDubMod 1.5.4.1 (build 2178/release)
Библиотека кодирования: VirtualDubMod build 2178/release

Видео
Идентификатор: 0
Формат: MPEG-4 Visual
Профиль формата: Advanced Simple@L5
Параметр BVOP формата: 1
Параметр QPel формата: Нет
Параметр GMC формата: Без точки перехода
Параметр матрицы формата: Выборочная
Идентификатор кодека: XVID
Идентификатор кодека/Подсказка: XviD
Продолжительность: 2 ч. 26 м.
Битрейт: 542 Кбит/сек
Ширина: 592 пикс.
Высота: 336 пикс.
Соотношение сторон: 16:9
Частота кадров: 25,000 кадр/сек
Цветовое пространство: YUV
Подвыборка цветности: 4:2:0
Битовая глубина: 8 бит
Тип развёртки: Прогрессивная
Метод сжатия: С потерями
Бит/(Пиксели*Кадры): 0.109
Размер потока: 568 Мбайт (81%)
Библиотека кодирования: XviD 1.2.0.dev47 (UTC 2006-11-01)

Аудио
Идентификатор: 1
Формат: MPEG Audio
Версия формата: Version 1
Профиль формата: Layer 3
Режим: Joint stereo
Идентификатор кодека: 55
Идентификатор кодека/Подсказка: MP3
Продолжительность: 2 ч. 26 м.
Вид битрейта: Переменный
Битрейт: 112 Кбит/сек
Канал(ы): 2 канала(ов)
Частота: 48,0 КГц
Метод сжатия: С потерями
Размер потока: 119 Мбайт (17%)
Выравнивание: Соединение по промежуткам
Продолжительность промежутка: 24мс. (0,60 видеокадр)
Время предзагрузки промежутка: 141 ms
Библиотека кодирования: LAME3.97
Язык: Russian





Поделиться:




реклама партнёра


Вернуться к началу
 Профиль Отправить личное сообщение  
 
   Похожие торренты   Автор   Торрент   Размер 
В этой теме нет новых непрочитанных сообщений. Шпионский мост / Bridge of Spies (Стивен Спилберг) [2015, триллер, драма, биография, BDRip-AVC | Чистый звук] Dub

PriZraK

5246 | 204

2.87 ГБ

В этой теме нет новых непрочитанных сообщений. Империя волков / L'Empire des loups [триллер, драма, боевик, 2005] DVDRip, Dub

salma3

10 | 2

1.41 ГБ

В этой теме нет новых непрочитанных сообщений. Империя / Empire [триллер, драма, криминал, 2002] WEB-DL 1080p, Mvo

salma3

87 | 2

3.33 ГБ

В этой теме нет новых непрочитанных сообщений. Империя / Empire [триллер, драма, криминал, 2002] WEB-DLRip, Mvo

salma3

8 | 2

1.46 ГБ

В этой теме нет новых непрочитанных сообщений. Империя / Empire [02x01-10 из 18] (Ли Дэниелс) [Драма, 2015] WEB-DLRip, Mvo+Sub [Amedia]

Dracon

7 | 92

4.89 ГБ

В этой теме нет новых непрочитанных сообщений. Империя / Empire [01x01 из 12] (Ли Дэниелс) [2015, Драма, WEB-DLRip | Amedia]

Nickolas3435

75 | 3

666.34 МБ

В этой теме нет новых непрочитанных сообщений. Империя / Empire [01x01 из 12] (Ли Дэниелс) [2015, Драма, WEB-DL 720p | Amedia]

Nickolas3435

59 | 3

1.51 ГБ


Начать новую тему Ответить на тему  [ 1 сообщение ] 




Для Мосгорсуда, Роскомнадзора и рекламодателей:: mosgorsud-torrent[собачка]yandex.ru