Торрент файл
скачать торрент магнет ссылка Добавлен: 14 янв 2012, 22:44
Размер: 1.47 ГБ
Сидеров: 14
Личеров: 4
Автор

СообщениеДобавлено: 14 янв 2012, 22:44 

Не в сети
Супермодератор
Аватара пользователя
Дата регистрации:
11 апр 2010, 18:10
Спасибо: 5801 / 7
Сообщения: 56779
Человек на Луне / Man on the Moon


Перевод: Профессиональный (полное дублирование), cубтитры: отсутствуют
Формат: HDRip, AVI, XviD, AC3
Страна: США, Германия, Япония, Великобритания
Режиссер: Милош Форман
Жанр: драма, комедия, биография
Продолжительность: 01:53:43
Год выпуска: 1999
В ролях: Джим Кэрри, Дэнни ДеВито, Кортни Лав, Пол Джаматти, Винсент Скьявелли, Питер Бонерц, Джерри Лоулер, Джерри Беккер, Лесли Лайлз

Описание: Энди Кауфман не был обычным комиком. Он был выдающимся, провоцирующим, дерзким, оригинальным — эти качества можно отнести и к пленительному и успешному биографическому фильму «Человек на луне».

Джим Кэрри становится звездой, выиграв Золотой Глобус за зловещую роль комика. Энди нарушал все правила: заставляя людей смеяться над тем, что не может быть смешным. Он запудрит Вам мозги, но доставит Вам истинное удовольствие.




Видео: 720x304 (2.37:1), 25 fps, XviD build 50 ~1453 kbps avg, 0.27 bit/pixel
Аудио: 48 kHz, AC3 Dolby Digital, 3/2 (L,C,R,l,r) + LFE ch, ~384.00 kbps avg




Общее
Полное имя: E:\Man.on.the.Moon.1999.HDRip.avi
Формат: AVI
Формат/Информация: Audio Video Interleave
Размер файла: 1,47 Гбайт
Продолжительность: 1 ч. 53 м.
Общий поток: 1847 Кбит/сек
Программа кодирования: VirtualDubMod 1.5.10.2 (build 2542/release)
Библиотека кодирования: VirtualDubMod build 2542/release

Видео
Идентификатор: 0
Формат: MPEG-4 Visual
Профиль формата: Advanced Simple@L5
Параметр BVOP формата: 1
Параметр QPel формата: Нет
Параметр GMC формата: Без точки перехода
Параметр матрицы формата: Default (MPEG)
Идентификатор кодека: XVID
Идентификатор кодека/Подсказка: XviD
Продолжительность: 1 ч. 53 м.
Битрейт: 1454 Кбит/сек
Ширина: 720 пикс.
Высота: 304 пикс.
Соотношение сторон: 2,35:1
Частота кадров: 25,000 кадр/сек
Цветовое пространство: YUV
Подвыборка цветности: 4:2:0
Битовая глубина: 8 бит
Тип развёртки: Прогрессивная
Метод сжатия: С потерями
Бит/(Пиксели*Кадры): 0.266
Размер потока: 1,15 Гбайт (79%)
Библиотека кодирования: XviD 1.2.1 (UTC 2008-12-04)

Аудио
Идентификатор: 1
Формат: AC-3
Формат/Информация: Audio Coding 3
Расширение режима: CM (complete main)
Идентификатор кодека: 2000
Продолжительность: 1 ч. 53 м.
Вид битрейта: Постоянный
Битрейт: 384 Кбит/сек
Канал(ы): 6 канала(ов)
Расположение каналов: Front: L C R, Side: L R, LFE
Частота: 48,0 КГц
Битовая глубина: 16 бит
Метод сжатия: С потерями
Размер потока: 312 Мбайт (21%)
Выравнивание: Разделение по промежуткам
Продолжительность промежутка: 40мс. (1,00 видеокадр)
Время предзагрузки промежутка: 500 ms





Поделиться:




реклама партнёра


Вернуться к началу
 Профиль Отправить личное сообщение  
 
   Похожие торренты   Автор   Торрент   Размер 
В этой теме нет новых непрочитанных сообщений. Свой человек / The Insider [триллер, драма, биография, 1999] BDRip, Mvo

salma3

211 | 38

1.46 ГБ

В этой теме нет новых непрочитанных сообщений. Свой человек / The Insider [триллер, драма, биография, 1999] BDRip 720p, 3Mvo+2Avo+Sub

salma3

38 | 13

18.38 ГБ

В этой теме нет новых непрочитанных сообщений. Парни не плачут / Boys Don't Cry [драма, биография, 1999] HDRip, Mvo

salma3

25 | 6

1.45 ГБ

В этой теме нет новых непрочитанных сообщений. Человек – швейцарский нож / Swiss Army Man [фэнтези, драма, мелодрама, комедия, приключения, 2016] HDRip, Dub [iTunes]

marya111

648 | 13

1.45 ГБ

В этой теме нет новых непрочитанных сообщений. Человек – швейцарский нож / Swiss Army Man [Мюзикл, фэнтези, драма, мелодрама, комедия, приключения, 2016] HDRip, Dub [iTunes]

marya111

0 | 0

745.5 МБ

В этой теме нет новых непрочитанных сообщений. Человек – швейцарский нож / Swiss Army Man [фэнтези, драма, мелодрама, комедия, приключения, 2016] HDRip, Dub [чистый звук]

salma3

8434 | 403

1.37 ГБ

В этой теме нет новых непрочитанных сообщений. Fraction - Moon Blood (1971) [1999, Hard Psychedelic Rock, MP3]

PriZraK

0 | 1

73.65 МБ


Начать новую тему Ответить на тему  [ 1 сообщение ] 




Для Мосгорсуда, Роскомнадзора и рекламодателей:: mosgorsud-torrent[собачка]yandex.ru